Всегда рабочее зеркало без VPN и Proxy просто перед .vidak.icu напиши любое слово или цифру, Пример http://08ox.vidak.icu

MVO

2 сезон

1 сезон

1

1 сезон

iTunes

2 сезон

13

1 сезон

Deluxe

pack

Рекомендуем

Пиратка

30

ВАЖНО

RePack

MK11

RePack

jed

RePack

fifa19

RePack

RDR2

RePack

NEED FOR SPEED™ PAYBACK

Кинопоиск HD

6 сезон

 Острые козырьки 6 сезон

Все сериалы

все сериалы на PB.wtf

RePack

FAR CRY 5

Anonymous, нам критически не хватает 5601 руб. на оплату серверов и переферии за Апрель, помоги нам пожалуйста, вся надежда только на тебя. В благодарность мы отключим тебе всю рекламу на сайте!

×
  
Magnet ссылка

Рейд 2 / The Raid 2: Berandal (Гарет Эванс / Gareth Evans) [2014, Индонезия, США, боевик, триллер, криминал,BDRip 720p / 60 FPS,Дубляж - [Лицензия] pb.wtf

Рейд 2 через торрент pb.wtf

Размер: 9.26 GB | Добавлен: 7 лет 9 мес. назад | Торрент скачан:284 раза
Смотреть онлайн Рейд 2 | Скачать    Ребята, помогите собрать деньги на оплату серверов!!!

08-08-2014 23:23 Рейд 2 Скачать торрент  

Рейд 2 / The Raid 2: Berandal«Один против всех»



Год выпуска: 2014
Страна: Индонезия, США
Жанр: боевик, триллер, криминал
Продолжительность: 02:24:35
Перевод: Дубляж
Режиссер:Гарет Эванс / Gareth Evans
В ролях:

Ико Ювайс (Rama), Арифин Путра (Uco), Тио Пакусодево (Bangun), Ока Антара (Eka), Алекс Аббад (Bejo), Сесеп Ариф Рахман (The Assassin), Джули Эстелль (Alicia «Hammer Girl»), Вери Три Юлисман (Baseball Bat Man), Рюхэй Мацуда (Keichi), Кэнити Эндо (Hideaki Goto), Кадзуки Китамура (Ryuichi), Яян Рухьян (Prakoso)
Описание:
Из трех полицейских, выбравшихся из кровавого ада первой части, в живых остается только офицер Рама. Уволившись из спецназа, он пробует начать жизнь заново, но вскоре прошлое жестко напоминает о себе - преступники убивают его брата. Чтобы отомстить, он внедряется в мощный криминальный синдикат, где быстро поднимается до самых вершин бандитской иерархии. Врагов здесь еще больше, и каждый неверный шаг может оказаться последним. Здесь нет ни близких, ни друзей, ни любви, ни тоски, ни жалости!

Автор рипа:Tiberiumsun69
Качество: BDRip 720p / 60FPS
Формат: MKV
Видео кодек: AVC
Аудио кодек:AC3
Видео: 1280x720 (16:9), 7708 kbps, 60 fps
Аудио №1: русский/ 5.1/ 48 kHz/ 640 kbps/ AC3/ |Дубляж BD CEE|
Аудио №2: Indonesian/ 5.1/ 48 kHz/ 640 kbps/ AC3
Навигация по главам: есть


Raven за помощь в создании обложек и оформлении релиза.

Код:

General
Unique ID                                : 221997265159441999733673904721176227799 (0xA7031E38CDE4246D95E341C0BADEEFD7)
Complete name                            : A:\720p 60fps\Рейд 2 720p 60fps.mkv
Format                                   : Matroska
Format version                           : Version 4 / Version 2
File size                                : 9.26 GiB
Duration                                 : 2h 24mn
Overall bit rate                         : 9 171 Kbps
Encoded date                             : UTC 2014-08-08 11:30:56
Writing application                      : mkvmerge v6.9.1 ('Blue Panther') 64bit built on Apr 18 2014 18:23:38
Writing library                          : libebml v1.3.0 + libmatroska v1.4.1

Video
ID                                       : 1
Format                                   : AVC
Format/Info                              : Advanced Video Codec
Format profile                           : High@L4.1
Format settings, CABAC                   : Yes
Format settings, ReFrames                : 9 frames
Codec ID                                 : V_MPEG4/ISO/AVC
Duration                                 : 2h 24mn
Bit rate                                 : 7 708 Kbps
Width                                    : 1 280 pixels
Height                                   : 720 pixels
Display aspect ratio                     : 16:9
Frame rate                               : 60.000 fps
Color space                              : YUV
Chroma subsampling                       : 4:2:0
Bit depth                                : 8 bits
Scan type                                : Progressive
Bits/(Pixel*Frame)                       : 0.139
Stream size                              : 7.78 GiB (84%)
Writing library                          : x264 core 130 r2273 b3065e6
Encoding settings                        : cabac=1 / ref=9 / deblock=1:-1:-1 / analyse=0x3:0 / me=umh / subme=9 / psy=1 / psy_rd=1.00:0.10 / mixed_ref=1 / me_range=42 / chroma_me=0 / trellis=2 / 8x8dct=1 / cqm=0 / deadzone=21,11 / fast_pskip=0 / chroma_qp_offset=-3 / threads=12 / lookahead_threads=1 / sliced_threads=0 / nr=0 / decimate=0 / interlaced=0 / bluray_compat=0 / constrained_intra=0 / bframes=6 / b_pyramid=2 / b_adapt=2 / b_bias=0 / direct=1 / weightb=1 / open_gop=0 / weightp=2 / keyint=594 / keyint_min=59 / scenecut=40 / intra_refresh=0 / rc=crf / mbtree=0 / crf=13.0 / qcomp=0.60 / qpmin=0 / qpmax=69 / qpstep=4 / ip_ratio=1.40 / pb_ratio=1.30 / aq=0
Language                                 : English
Default                                  : Yes
Forced                                   : No

Audio #1
ID                                       : 2
Format                                   : AC-3
Format/Info                              : Audio Coding 3
Mode extension                           : CM (complete main)
Codec ID                                 : A_AC3
Duration                                 : 2h 24mn
Bit rate mode                            : Constant
Bit rate                                 : 640 Kbps
Channel(s)                               : 6 channels
Channel positions                        : Front: L C R, Side: L R, LFE
Sampling rate                            : 48.0 KHz
Bit depth                                : 16 bits
Compression mode                         : Lossy
Stream size                              : 662 MiB (7%)
Title                                    : Дубляж BD CEE
Language                                 : Russian
Default                                  : Yes
Forced                                   : No

Audio #2
ID                                       : 3
Format                                   : AC-3
Format/Info                              : Audio Coding 3
Mode extension                           : CM (complete main)
Codec ID                                 : A_AC3
Duration                                 : 2h 24mn
Bit rate mode                            : Constant
Bit rate                                 : 640 Kbps
Channel(s)                               : 6 channels
Channel positions                        : Front: L C R, Side: L R, LFE
Sampling rate                            : 48.0 KHz
Bit depth                                : 16 bits
Compression mode                         : Lossy
Stream size                              : 662 MiB (7%)
Title                                    : Original
Language                                 : Indonesian
Default                                  : No
Forced                                   : No

Menu
00:00:00.000                             : en:Chapter 1
00:10:01.720                             : en:Chapter 2
00:20:17.760                             : en:Chapter 3
00:30:30.360                             : en:Chapter 4
00:37:12.800                             : en:Chapter 5
00:48:50.640                             : en:Chapter 6
00:59:27.560                             : en:Chapter 7
01:10:31.320                             : en:Chapter 8
01:21:21.160                             : en:Chapter 9
01:32:37.120                             : en:Chapter 10
01:40:06.360                             : en:Chapter 11
01:46:31.880                             : en:Chapter 12
01:54:52.960                             : en:Chapter 13
02:00:53.960                             : en:Chapter 14
02:07:30.440                             : en:Chapter 15
02:14:24.120                             : en:Chapter 16
02:19:55.720                             : en:Chapter 17

..::Скриншоты::..

Просьба раздающим на других сайтах "Подписывайте пожалуйста автора рипа Tiberiumsun69"

© Оформление by Tiberiumsun69
Авторская группа в ВК
pb.wtf



Скачать Рейд 2 через торрент https://pic1.kartinco.top/images/61/stazu.jpg Скачать, смотреть онлайн Рейд 2 бесплантно в хорошем качестве Описание: Из трех полицейских, выбравшихся из кровавого ада первой части, в живых остается только офицер Рама. Уволившись из спецназа, он ... 9.3 10 18
Info! Золотая раздача, скачанное не засчитывается.
Торрент: Зарегистрирован [2014-08-08 23:23] · скачан: 284 раз
Статус: √ проверено
Размер: 9.26 GB
Как cкачать? Как скачать Рейд 2 через торрент | UTorrent

% Раздел Тема Автор DL S | L
Фильмы (HD 720p, 1080p) (48-60 fps) [ 16.3 GB ] Рейд 2 / The Raid 2: Berandal [2014 Индонезия BDRip 1080p - [] 60FPS Tiberiumsun69 Скачать
1 | 0
Фильмы 2014 [DVDrip, WEB-DLRip, HDrip] [ 2.19 GB ] Рейд 2 / The Raid 2: Berandal [2014 BDRip ] coc900 Скачать
1 | 0
Фильмы 2014 [DVDrip, WEB-DLRip, HDrip] [ 2.92 GB ] Рейд 2 / The Raid 2: Berandal [2014 BDRip-AVC] [USA Transfer] DUB potroks Скачать
2 | 0
Фильмы 2014 [DVDrip, WEB-DLRip, HDrip] [ 2.11 GB ] Рейд 2 / The Raid 2: Berandal [2014 HDRip-AVC От R.G. PiratFilms White Smoke Скачать
1 | 0
Фильмы с авторской озвучкой [ 1.46 GB ] Рейд 2 / The Raid 2: Berandal [2014 BDRip-AVC] AVO [Д.Есарев] potroks Скачать
1 | 0
Фильмы (DVD фильмы) [ 7.43 GB ] Рейд 2 / The Raid 2: Berandal [2014 DVD9] R5 voovaz Скачать
1 | 0
Фильмы [HD 720p, 1080p] (Хороший звук DUB, MVO) [ 10.2 GB ] Рейд 2 / The Raid 2: Berandal [2014 Индонезия BDRip 1080p - [] RUS Transfer _denis_100 Скачать
1 | 0


Последний раз редактировалось: Tiberiumsun69 (2018-02-07 08:05), всего редактировалось 1 раз

28-11-2019 20:33  

Отключить всю рекламу на сайте

23-12-2014 11:40 Рейд 2 Скачать торрент  

Спасибо!pb.wtf



    Дорогой пользователь! Огромная просьба, поблагодарите релизера, оцените раздачу и оставьте свои комментарий, если Вы скачали Рейд 2 через торрент бесплатно!
    Комментировать посты могут только пользователи прошедшие не сложную регистрацию
    Показать сообщения:    

    Рейд 2 через торрент
    Скачать бесплатно Рейд 2
    Рейд 2 скачать торрент
    Рейд 2 смотреть онлайн
    Cкачать фильм Рейд 2 бесплатно
    Рейд 2 скачать торрент в хорошем качестве
    Рейд 2 смотреть онлайн бесплатно в хорошем качестве


    Вы не можете начинать темы
    Вы не можете отвечать на сообщения
    Вы не можете редактировать свои сообщения
    Вы не можете удалять свои сообщения
    Вы не можете голосовать в опросах
    Вы не можете прикреплять файлы к сообщениям
    Вы можете скачивать файлы