Ссылка на приватное зеркало нашего сайта всего за 1$. Внимание количество ограничено!!!

2 сезон

iTunes

1 сезон

1

2 сезон

2 сезон

iTunes

1 сезон

RePack

30

Ultimate

ВАЖНО

ИГРА 18+

pack

RePack

MK11
pack

Забери бонус

RePack

jed

!!Акция!!

Alien_Rage

RePack

fifa19

RePack

Assassins Creed: Odyssey

RePack

NEED FOR SPEED™ PAYBACK

4 сезон

9 сезон

Бесстыжие 9 сезон

Все сериалы

все сериалы на PB.wtf

RePack

FAR CRY 5
  

Обитель зла / Resident Evil [Антология] [2002-2012, ужасы, фантастика, боевик, триллер BDRip 720p, DUB] 60fps pb.wtf

Обитель зла через торрент pb.wtf

Размер: 24.68 GB | Добавлен: 6 лет 3 мес. назад | Торрент скачан:231 раз
Скачать  

09-08-2014 02:09 Обитель зла Скачать торрент  

Перед скачиванием обязательно проверьте Сэмплы на своем оборудовании.
В 2,5 раза больше кадров!
В 2,5 раза плавнее! (59,94 fps)
Приятного просмотра. =)
Raven за помощь в оформлении обложек и оформления.
Обитель зла / Resident Evil«From the Director of Mortal Combat and Event Horizon»



Год выпуска: 2002
Страна: Германия, США
Жанр: ужасы, фантастика, боевик
Продолжительность: 01:40:31
Перевод: Дубляж - [Лицензия]
Субтитры:Русские (Полные), Английские (Полные)
Режиссер:Пол У. С. Андерсон / Paul W.S. Anderson
В ролях:

Милла Йовович (Alice), Мишель Родригес (Rain), Эрик Мэбиас (Matt), Джеймс Пьюрфой (Spence), Мартин Крюз (Kaplan), Колин Сэлмон (One), Райан МакКласки (Mr. Grey), Оскар Пирс (Mr. Red), Индра Ове (Ms. Black), Анна Болт (Dr. Green), Джозеф Мэй (Dr. Blue), Роберт Тэннион (Dr. Brown)
Описание:
В гигантской подземной лаборатории на волю вырывается опаснейший вирус, мгновенно превращая своих жертв в прожорливых зомби. Достаточно одного их укуса или царапины страшных когтей, чтобы человек стал обезумевшим пожирателем живой плоти.
Военные посылают в секретный комплекс, кишащий ужасными мутировавшими животными и голодными монстрами, группу спецназа, к которой присоединяются очаровательная Элис и отважный полицейский Мэтт. У них есть только три часа, чтобы уничтожить вирус до того, как он распространится по всей Земле...

Автор рипа:Tiberiumsun69
Качество: BDRip 720p / 60 FPS
Формат: MKV
Видео кодек: AVC
Аудио кодек:AC3
Видео: 1280x696 (16:9), 7043 kbps, 59,940 fps
Аудио №1: Русский/ 5.1/ 48 kHz/ 640 kbps/ AC3/ |Дубляж BD CEE|
Аудио №2: Английский/ 5.1/ 48 kHz/ 640 kbps/ AC3
Навигация по главам: есть


Код:

General
Unique ID                                : 196538731687567694546941291521597763713 (0x93DBFB9CA405656BAAC562264EF3F081)
Complete name                            : A:\720p 60fps\Обитель зла 720p 60fps\Обитель зла 1 720p 60fps.mkv
Format                                   : Matroska
Format version                           : Version 4 / Version 2
File size                                : 5.96 GiB
Duration                                 : 1h 40mn
Overall bit rate                         : 8 493 Kbps
Encoded date                             : UTC 2014-08-05 21:52:02
Writing application                      : mkvmerge v6.9.1 ('Blue Panther') 64bit built on Apr 18 2014 18:23:38
Writing library                          : libebml v1.3.0 + libmatroska v1.4.1

Video
ID                                       : 1
Format                                   : AVC
Format/Info                              : Advanced Video Codec
Format profile                           : High@L4.1
Format settings, CABAC                   : Yes
Format settings, ReFrames                : 9 frames
Codec ID                                 : V_MPEG4/ISO/AVC
Duration                                 : 1h 40mn
Bit rate                                 : 7 044 Kbps
Width                                    : 1 280 pixels
Height                                   : 696 pixels
Display aspect ratio                     : 16:9
Frame rate                               : 59.940 fps
Color space                              : YUV
Chroma subsampling                       : 4:2:0
Bit depth                                : 8 bits
Scan type                                : Progressive
Bits/(Pixel*Frame)                       : 0.132
Stream size                              : 4.95 GiB (83%)
Writing library                          : x264 core 130 r2273 b3065e6
Encoding settings                        : cabac=1 / ref=9 / deblock=1:-1:-1 / analyse=0x3:0 / me=umh / subme=9 / psy=1 / psy_rd=1.00:0.10 / mixed_ref=1 / me_range=42 / chroma_me=0 / trellis=2 / 8x8dct=1 / cqm=0 / deadzone=21,11 / fast_pskip=0 / chroma_qp_offset=-3 / threads=12 / lookahead_threads=1 / sliced_threads=0 / nr=0 / decimate=0 / interlaced=0 / bluray_compat=0 / constrained_intra=0 / bframes=6 / b_pyramid=2 / b_adapt=2 / b_bias=0 / direct=1 / weightb=1 / open_gop=0 / weightp=2 / keyint=594 / keyint_min=59 / scenecut=40 / intra_refresh=0 / rc=crf / mbtree=0 / crf=15.0 / qcomp=0.60 / qpmin=0 / qpmax=69 / qpstep=4 / ip_ratio=1.40 / pb_ratio=1.30 / aq=0
Language                                 : English
Default                                  : Yes
Forced                                   : No

Audio #1
ID                                       : 2
Format                                   : AC-3
Format/Info                              : Audio Coding 3
Mode extension                           : CM (complete main)
Codec ID                                 : A_AC3
Duration                                 : 1h 40mn
Bit rate mode                            : Constant
Bit rate                                 : 640 Kbps
Channel(s)                               : 6 channels
Channel positions                        : Front: L C R, Side: L R, LFE
Sampling rate                            : 48.0 KHz
Bit depth                                : 16 bits
Compression mode                         : Lossy
Stream size                              : 460 MiB (8%)
Title                                    : Дубляж
Language                                 : Russian
Default                                  : Yes
Forced                                   : No

Audio #2
ID                                       : 3
Format                                   : AC-3
Format/Info                              : Audio Coding 3
Mode extension                           : CM (complete main)
Codec ID                                 : A_AC3
Duration                                 : 1h 40mn
Bit rate mode                            : Constant
Bit rate                                 : 640 Kbps
Channel(s)                               : 6 channels
Channel positions                        : Front: L C R, Side: L R, LFE
Sampling rate                            : 48.0 KHz
Bit depth                                : 16 bits
Compression mode                         : Lossy
Stream size                              : 460 MiB (8%)
Title                                    : Original
Language                                 : English
Default                                  : No
Forced                                   : No

Text #1
ID                                       : 4
Format                                   : UTF-8
Codec ID                                 : S_TEXT/UTF8
Codec ID/Info                            : UTF-8 Plain Text
Title                                    : Полные
Language                                 : Russian
Default                                  : No
Forced                                   : No

Text #2
ID                                       : 5
Format                                   : UTF-8
Codec ID                                 : S_TEXT/UTF8
Codec ID/Info                            : UTF-8 Plain Text
Title                                    : Полные
Language                                 : English
Default                                  : No
Forced                                   : No

Menu
00:00:00.000                             : :Chapter 01
00:08:22.585                             : :Chapter 02
00:11:00.409                             : :Chapter 03
00:19:09.940                             : :Chapter 04
00:23:49.010                             : :Chapter 05
00:29:22.469                             : :Chapter 06
00:37:51.227                             : :Chapter 07
00:41:14.555                             : :Chapter 08
00:47:11.829                             : :Chapter 09
00:52:16.591                             : :Chapter 10
01:00:47.977                             : :Chapter 11
01:08:35.694                             : :Chapter 12
01:12:05.321                             : :Chapter 13
01:18:33.667                             : :Chapter 14
01:24:22.348                             : :Chapter 15
01:30:16.160                             : :Chapter 16
01:40:30.441                             : :Chapter 17

..::Скриншоты::..

Обитель зла 2: Апокалипсис / Resident Evil: Apocalypse«Она прошла через катакомбы, кишащие зомби. Теперь на её пути целый город...»



Год выпуска: 2004
Страна: Германия, Франция, Великобритания, Канада, США
Жанр: ужасы, фантастика, боевик, триллер
Продолжительность: 01:33:48
Перевод: Дубляж
Субтитры:русские (Полные), английские (Полные)
Режиссер:Александр Уитт / Alexander Witt
В ролях:

Милла Йовович (Alice), Сиенна Гиллори (Jill Valentine), Одед Фер (Carlos Olivera), Томас Кречман (Major Tom Cain), Софи Вавасо (Angie Ashford), Разаак Адоти (Sgt. Peyton Wells), Джаред Харрис (Dr. Ashford), Майк Эппс (L.J.), Сандрин Холт (Terri Morales), Мэттью Дж. Тейлор (Nemesis), Зак Уорд (Nicholai Ginovaeff), Иэн Глен (Dr. Isaacs)
Описание:
Действие картины разворачивается на улицах печально известного Ракун-сити, города, контролируемого могущественной корпорацией «Амбрелла».
После бактериологической катастрофы все жители стали медленно превращаться в зомби, а те немногочисленные граждане, чей разум ещё не был до конца изъеден ужасным вирусом, доживали свои последние дни в атмосфере страха и желания скорейшей смерти...

Автор рипа:Tiberiumsun69
Качество: BDRip 720p / 60 FPS
Формат: MKV
Видео кодек: AVC
Аудио кодек:AC3
Видео: 1280x536 (2.40:1), 5923 kbps, 59,940 fps
Аудио №1: русский/ 5.1/ 48 kHz/ 640 kbps/ AC3/ |Дубляж BD CEE|
Аудио №2: английский/ 5.1/ 48 kHz/ 640 kbps/ AC3
Навигация по главам: есть


Код:

General
Unique ID                                : 211044163917276578207204422678809258628 (0x9EC5A0A307C26BAC82B7DBC83D91AA84)
Complete name                            : A:\720p 60fps\Обитель зла 720p 60fps\Обитель зла 2 720p 60fps.mkv
Format                                   : Matroska
Format version                           : Version 4 / Version 2
File size                                : 4.82 GiB
Duration                                 : 1h 33mn
Overall bit rate                         : 7 349 Kbps
Encoded date                             : UTC 2014-08-05 21:58:04
Writing application                      : mkvmerge v6.9.1 ('Blue Panther') 64bit built on Apr 18 2014 18:23:38
Writing library                          : libebml v1.3.0 + libmatroska v1.4.1

Video
ID                                       : 1
Format                                   : AVC
Format/Info                              : Advanced Video Codec
Format profile                           : High@L4.1
Format settings, CABAC                   : Yes
Format settings, ReFrames                : 9 frames
Codec ID                                 : V_MPEG4/ISO/AVC
Duration                                 : 1h 33mn
Bit rate                                 : 5 923 Kbps
Width                                    : 1 280 pixels
Height                                   : 536 pixels
Display aspect ratio                     : 2.40:1
Frame rate                               : 59.940 fps
Color space                              : YUV
Chroma subsampling                       : 4:2:0
Bit depth                                : 8 bits
Scan type                                : Progressive
Bits/(Pixel*Frame)                       : 0.144
Stream size                              : 3.88 GiB (81%)
Writing library                          : x264 core 130 r2273 b3065e6
Encoding settings                        : cabac=1 / ref=9 / deblock=1:-1:-1 / analyse=0x3:0 / me=umh / subme=9 / psy=1 / psy_rd=1.00:0.10 / mixed_ref=1 / me_range=42 / chroma_me=0 / trellis=2 / 8x8dct=1 / cqm=0 / deadzone=21,11 / fast_pskip=0 / chroma_qp_offset=-3 / threads=12 / lookahead_threads=1 / sliced_threads=0 / nr=0 / decimate=0 / interlaced=0 / bluray_compat=0 / constrained_intra=0 / bframes=6 / b_pyramid=2 / b_adapt=2 / b_bias=0 / direct=1 / weightb=1 / open_gop=0 / weightp=2 / keyint=594 / keyint_min=59 / scenecut=40 / intra_refresh=0 / rc=crf / mbtree=0 / crf=15.0 / qcomp=0.60 / qpmin=0 / qpmax=69 / qpstep=4 / ip_ratio=1.40 / pb_ratio=1.30 / aq=0
Language                                 : English
Default                                  : Yes
Forced                                   : No

Audio #1
ID                                       : 2
Format                                   : AC-3
Format/Info                              : Audio Coding 3
Mode extension                           : CM (complete main)
Codec ID                                 : A_AC3
Duration                                 : 1h 33mn
Bit rate mode                            : Constant
Bit rate                                 : 640 Kbps
Channel(s)                               : 6 channels
Channel positions                        : Front: L C R, Side: L R, LFE
Sampling rate                            : 48.0 KHz
Bit depth                                : 16 bits
Compression mode                         : Lossy
Stream size                              : 429 MiB (9%)
Title                                    : Дубляж
Language                                 : Russian
Default                                  : Yes
Forced                                   : No

Audio #2
ID                                       : 3
Format                                   : AC-3
Format/Info                              : Audio Coding 3
Mode extension                           : CM (complete main)
Codec ID                                 : A_AC3
Duration                                 : 1h 33mn
Bit rate mode                            : Constant
Bit rate                                 : 640 Kbps
Channel(s)                               : 6 channels
Channel positions                        : Front: L C R, Side: L R, LFE
Sampling rate                            : 48.0 KHz
Bit depth                                : 16 bits
Compression mode                         : Lossy
Stream size                              : 429 MiB (9%)
Title                                    : Original
Language                                 : English
Default                                  : No
Forced                                   : No

Text #1
ID                                       : 4
Format                                   : UTF-8
Codec ID                                 : S_TEXT/UTF8
Codec ID/Info                            : UTF-8 Plain Text
Title                                    : Полные
Language                                 : Russian
Default                                  : No
Forced                                   : No

Text #2
ID                                       : 5
Format                                   : UTF-8
Codec ID                                 : S_TEXT/UTF8
Codec ID/Info                            : UTF-8 Plain Text
Title                                    : Полные
Language                                 : English
Default                                  : No
Forced                                   : No

Menu
00:00:00.000                             : :Chapter 01
00:05:56.355                             : :Chapter 02
00:14:52.224                             : :Chapter 03
00:19:38.051                             : :Chapter 04
00:24:04.401                             : :Chapter 05
00:30:52.934                             : :Chapter 06
00:36:15.798                             : :Chapter 07
00:42:48.315                             : :Chapter 08
00:49:02.564                             : :Chapter 09
00:56:26.508                             : :Chapter 10
01:00:40.970                             : :Chapter 11
01:07:08.858                             : :Chapter 12
01:13:13.097                             : :Chapter 13
01:18:07.057                             : :Chapter 14
01:22:26.858                             : :Chapter 15
01:24:27.854                             : :Chapter 16
01:33:46.537                             : :Chapter 17

..::Скриншоты::..

Обитель зла 3 / Resident Evil: Extinction«На этот раз без компромиссов»



Год выпуска: 2007
Страна: Германия, США, Франция, Австралия, Великобритания
Жанр: ужасы, фантастика, боевик, триллер
Продолжительность: 01:34:05
Перевод: Дубляж
Субтитры:русские (Полные), английские (Полные)
Режиссер:Рассел Малкэй / Russell Mulcahy
В ролях:

Милла Йовович (Alice), Одед Фер (Carlos Olivera), Эли Лартер (Claire), Иэн Глен (Dr. Isaacs), Ашанти (Betty), Кристофер Иган (Mikey), Спенсер Лок (K-Mart), Мэттью Мэрсден (Slater), Линден Эшби (Chase), Джейсон О’Мара (Albert Wesker), Майк Эппс (L.J.), Джо Херсли (Otto)
Описание:
Элис, не раз уже спасавшая мир от смертельных вирусов и неминуемой гибели, вновь взялась за оружие. На этот раз ей предстоит сразиться с корпорацией «Амбрелла», работающей над реализацией зверского антигуманного проекта. Коварные политики и прагматичные ученые стремятся уничтожить людей и заменить их на более «совершенные» создания, заселив Землю неуязвимыми бессмертными клонами...

Автор рипа:Tiberiumsun69
Качество: BDRip 720p / 60 FPS
Формат: MKV
Видео кодек: AVC
Аудио кодек:AC3
Видео: 1280x536 (2.40:1), 6254 kbps, 59,940 fps
Аудио №1: русский/ 5.1/ 48 kHz/ 640 kbps/ AC3/ |Дубляж BD CEE|
Аудио №2: английский/ 5.1/ 48 kHz/ 640 kbps/ AC3
Навигация по главам: есть


Код:

General
Unique ID                                : 211134932461343420098645726650285837599 (0x9ED71BDF1FAC2D67A2A488AC6E124D1F)
Complete name                            : A:\720p 60fps\Обитель зла 720p 60fps\Обитель зла 3 720p 60fps.mkv
Format                                   : Matroska
Format version                           : Version 4 / Version 2
File size                                : 5.05 GiB
Duration                                 : 1h 34mn
Overall bit rate                         : 7 687 Kbps
Encoded date                             : UTC 2014-08-05 22:03:02
Writing application                      : mkvmerge v6.9.1 ('Blue Panther') 64bit built on Apr 18 2014 18:23:38
Writing library                          : libebml v1.3.0 + libmatroska v1.4.1

Video
ID                                       : 1
Format                                   : AVC
Format/Info                              : Advanced Video Codec
Format profile                           : High@L4.1
Format settings, CABAC                   : Yes
Format settings, ReFrames                : 9 frames
Codec ID                                 : V_MPEG4/ISO/AVC
Duration                                 : 1h 34mn
Bit rate                                 : 6 254 Kbps
Width                                    : 1 280 pixels
Height                                   : 536 pixels
Display aspect ratio                     : 2.40:1
Frame rate                               : 59.940 fps
Color space                              : YUV
Chroma subsampling                       : 4:2:0
Bit depth                                : 8 bits
Scan type                                : Progressive
Bits/(Pixel*Frame)                       : 0.152
Stream size                              : 4.11 GiB (81%)
Writing library                          : x264 core 130 r2273 b3065e6
Encoding settings                        : cabac=1 / ref=9 / deblock=1:-1:-1 / analyse=0x3:0 / me=umh / subme=9 / psy=1 / psy_rd=1.00:0.10 / mixed_ref=1 / me_range=42 / chroma_me=0 / trellis=2 / 8x8dct=1 / cqm=0 / deadzone=21,11 / fast_pskip=0 / chroma_qp_offset=-3 / threads=12 / lookahead_threads=1 / sliced_threads=0 / nr=0 / decimate=0 / interlaced=0 / bluray_compat=0 / constrained_intra=0 / bframes=6 / b_pyramid=2 / b_adapt=2 / b_bias=0 / direct=1 / weightb=1 / open_gop=0 / weightp=2 / keyint=594 / keyint_min=59 / scenecut=40 / intra_refresh=0 / rc=crf / mbtree=0 / crf=15.0 / qcomp=0.60 / qpmin=0 / qpmax=69 / qpstep=4 / ip_ratio=1.40 / pb_ratio=1.30 / aq=0
Language                                 : English
Default                                  : Yes
Forced                                   : No

Audio #1
ID                                       : 2
Format                                   : AC-3
Format/Info                              : Audio Coding 3
Mode extension                           : CM (complete main)
Codec ID                                 : A_AC3
Duration                                 : 1h 34mn
Bit rate mode                            : Constant
Bit rate                                 : 640 Kbps
Channel(s)                               : 6 channels
Channel positions                        : Front: L C R, Side: L R, LFE
Sampling rate                            : 48.0 KHz
Bit depth                                : 16 bits
Compression mode                         : Lossy
Stream size                              : 431 MiB (8%)
Title                                    : Дубляж
Language                                 : Russian
Default                                  : Yes
Forced                                   : No

Audio #2
ID                                       : 3
Format                                   : AC-3
Format/Info                              : Audio Coding 3
Mode extension                           : CM (complete main)
Codec ID                                 : A_AC3
Duration                                 : 1h 34mn
Bit rate mode                            : Constant
Bit rate                                 : 640 Kbps
Channel(s)                               : 6 channels
Channel positions                        : Front: L C R, Side: L R, LFE
Sampling rate                            : 48.0 KHz
Bit depth                                : 16 bits
Compression mode                         : Lossy
Stream size                              : 431 MiB (8%)
Title                                    : Original
Language                                 : English
Default                                  : No
Forced                                   : No

Text #1
ID                                       : 4
Format                                   : UTF-8
Codec ID                                 : S_TEXT/UTF8
Codec ID/Info                            : UTF-8 Plain Text
Title                                    : Полные
Language                                 : Russian
Default                                  : No
Forced                                   : No

Text #2
ID                                       : 5
Format                                   : UTF-8
Codec ID                                 : S_TEXT/UTF8
Codec ID/Info                            : UTF-8 Plain Text
Title                                    : Полные
Language                                 : English
Default                                  : No
Forced                                   : No

Menu
00:00:00.000                             : :Chapter 01
00:07:32.368                             : :Chapter 02
00:13:39.318                             : :Chapter 03
00:18:25.437                             : :Chapter 04
00:25:13.386                             : :Chapter 05
00:30:07.806                             : :Chapter 06
00:32:17.727                             : :Chapter 07
00:38:53.497                             : :Chapter 08
00:44:21.784                             : :Chapter 09
00:50:56.053                             : :Chapter 10
00:55:23.653                             : :Chapter 11
01:01:46.160                             : :Chapter 12
01:08:50.376                             : :Chapter 13
01:14:42.769                             : :Chapter 14
01:19:13.248                             : :Chapter 15
01:24:15.550                             : :Chapter 16
01:34:04.472                             : :Chapter 17

..::Скриншоты::..

Обитель зла 4: Жизнь после смерти 3D / Resident Evil: Afterlife«Испытайте новое измерение зла»



Год выпуска: 2010
Страна: Германия, Франция, США, Канада
Жанр: ужасы, фантастика, боевик, приключения
Продолжительность: 01:36:52
Перевод: Дубляж
Субтитры:русские (Форсировнные), русские (Полные), английские (Полные)
Режиссер:Пол У. С. Андерсон / Paul W.S. Anderson
В ролях:

Милла Йовович (Alice), Эли Лартер (Claire Redfield), Вентворт Миллер (Chris Redfield), Борис Коджо (Luther), Ким Коутс (Bennett), Шон Робертс (Albert Wesker), Серхио Перис-Менчета (Angel), Спенсер Лок (K-Mart), Сиенна Гиллори (Jill Valentine), Кейси Барнфилд (Crystal Waters), Норман Енг (Kim Yong), Фульвио Чечере (Wendell)
Описание:
Элис продолжает свой путь в мире, поражённом вирусной инфекцией, превращающей людей в нежить. Героиня ищет оставшихся в живых, чтобы вывести их в безопасное место. Её смертельная битва с корпорацией Амбрелла выходит на новый уровень...

Автор рипа:Tiberiumsun69
Качество: BDRip 720p / 60 FPS
Формат: MKV
Видео кодек: AVC
Аудио кодек:AC3
Видео: 1280x528 (2.40:1), 5108 kbps, 59,940 fps
Аудио №1: русский/ 5.1/ 48 kHz/ 448 kbps/ AC3/ |Дубляж BD CEE|
Аудио №2: английский/ 5.1/ 48 kHz/ 640 kbps/ AC3
Навигация по главам: есть


Код:

General
Unique ID                                : 227850560272493309290224032080803589186 (0xAB6A6BF3B4EF916290B94C7C75FEEC42)
Complete name                            : A:\720p 60fps\Обитель зла 720p 60fps\Обитель зла 4 720p 60fps.mkv
Format                                   : Matroska
Format version                           : Version 4 / Version 2
File size                                : 4.28 GiB
Duration                                 : 1h 36mn
Overall bit rate                         : 6 323 Kbps
Encoded date                             : UTC 2014-08-05 22:09:08
Writing application                      : mkvmerge v6.9.1 ('Blue Panther') 64bit built on Apr 18 2014 18:23:38
Writing library                          : libebml v1.3.0 + libmatroska v1.4.1

Video
ID                                       : 1
Format                                   : AVC
Format/Info                              : Advanced Video Codec
Format profile                           : High@L4.1
Format settings, CABAC                   : Yes
Format settings, ReFrames                : 9 frames
Codec ID                                 : V_MPEG4/ISO/AVC
Duration                                 : 1h 36mn
Bit rate                                 : 5 109 Kbps
Width                                    : 1 280 pixels
Height                                   : 528 pixels
Display aspect ratio                     : 2.40:1
Frame rate                               : 59.940 fps
Color space                              : YUV
Chroma subsampling                       : 4:2:0
Bit depth                                : 8 bits
Scan type                                : Progressive
Bits/(Pixel*Frame)                       : 0.126
Stream size                              : 3.46 GiB (81%)
Writing library                          : x264 core 130 r2273 b3065e6
Encoding settings                        : cabac=1 / ref=9 / deblock=1:-1:-1 / analyse=0x3:0 / me=umh / subme=9 / psy=1 / psy_rd=1.00:0.10 / mixed_ref=1 / me_range=42 / chroma_me=0 / trellis=2 / 8x8dct=1 / cqm=0 / deadzone=21,11 / fast_pskip=0 / chroma_qp_offset=-3 / threads=12 / lookahead_threads=1 / sliced_threads=0 / nr=0 / decimate=0 / interlaced=0 / bluray_compat=0 / constrained_intra=0 / bframes=6 / b_pyramid=2 / b_adapt=2 / b_bias=0 / direct=1 / weightb=1 / open_gop=0 / weightp=2 / keyint=594 / keyint_min=59 / scenecut=40 / intra_refresh=0 / rc=crf / mbtree=0 / crf=15.0 / qcomp=0.60 / qpmin=0 / qpmax=69 / qpstep=4 / ip_ratio=1.40 / pb_ratio=1.30 / aq=0
Language                                 : English
Default                                  : Yes
Forced                                   : No

Audio #1
ID                                       : 2
Format                                   : AC-3
Format/Info                              : Audio Coding 3
Mode extension                           : CM (complete main)
Codec ID                                 : A_AC3
Duration                                 : 1h 36mn
Bit rate mode                            : Constant
Bit rate                                 : 448 Kbps
Channel(s)                               : 6 channels
Channel positions                        : Front: L C R, Side: L R, LFE
Sampling rate                            : 48.0 KHz
Bit depth                                : 16 bits
Compression mode                         : Lossy
Stream size                              : 310 MiB (7%)
Title                                    : Дубляж
Language                                 : Russian
Default                                  : Yes
Forced                                   : No

Audio #2
ID                                       : 3
Format                                   : AC-3
Format/Info                              : Audio Coding 3
Mode extension                           : CM (complete main)
Codec ID                                 : A_AC3
Duration                                 : 1h 36mn
Bit rate mode                            : Constant
Bit rate                                 : 640 Kbps
Channel(s)                               : 6 channels
Channel positions                        : Front: L C R, Side: L R, LFE
Sampling rate                            : 48.0 KHz
Bit depth                                : 16 bits
Compression mode                         : Lossy
Stream size                              : 443 MiB (10%)
Title                                    : Original
Language                                 : English
Default                                  : No
Forced                                   : No

Text #1
ID                                       : 4
Format                                   : UTF-8
Codec ID                                 : S_TEXT/UTF8
Codec ID/Info                            : UTF-8 Plain Text
Title                                    : Форсировнные
Language                                 : Russian
Default                                  : Yes
Forced                                   : No

Text #2
ID                                       : 5
Format                                   : UTF-8
Codec ID                                 : S_TEXT/UTF8
Codec ID/Info                            : UTF-8 Plain Text
Title                                    : Полные
Language                                 : Russian
Default                                  : No
Forced                                   : No

Text #3
ID                                       : 6
Format                                   : UTF-8
Codec ID                                 : S_TEXT/UTF8
Codec ID/Info                            : UTF-8 Plain Text
Title                                    : Полные
Language                                 : English
Default                                  : No
Forced                                   : No

Menu
00:00:00.000                             : :Chapter 01
00:07:51.304                             : :Chapter 02
00:14:04.552                             : :Chapter 03
00:19:21.368                             : :Chapter 04
00:25:23.939                             : :Chapter 05
00:30:07.222                             : :Chapter 06
00:35:08.189                             : :Chapter 07
00:41:51.091                             : :Chapter 08
00:47:07.241                             : :Chapter 09
00:53:41.468                             : :Chapter 10
01:00:53.941                             : :Chapter 11
01:07:58.532                             : :Chapter 12
01:14:07.985                             : :Chapter 13
01:17:54.711                             : :Chapter 14
01:23:39.014                             : :Chapter 15
01:27:24.489                             : :Chapter 16

..::Скриншоты::..

Обитель зла: Возмездие / Resident Evil: Retribution«Evil goes global»



Год выпуска: 2012
Страна: Германия, Канада, США, Франция
Жанр: ужасы, фантастика, боевик, триллер
Продолжительность: 01:35:37
Перевод: Дубляж
Субтитры:русские (Форсированные), русские (Полные), английские (Полные)
Режиссер:Пол У. С. Андерсон / Paul W.S. Anderson
В ролях:

Милла Йовович (Alice), Сиенна Гиллори (Jill Valentine), Йохан Урб (Leon S. Kennedy), Ли Бинбин (Ada Wong), Ариана Энджинир (Becky), Мишель Родригес (Rain), Борис Коджо (Luther West), Кевин Дюран (Barry Burton), Одед Фер (Carlos), Колин Сэлмон (James «One» Shade), Робин Касянов (Sergei), Офилио Портильо (Tony)
Описание:
Смертельный T-вирус, созданный в лабораториях корпорации «Амбрелла», продолжает захватывать Землю, превращая мировое население в легионы пожирающих плоть зомби. Последняя надежда человечества Элис внедряется в самое сердце самой тайной исследовательской базы корпорации и узнает еще больше о собственном таинственном прошлом. Не имея путей к отступлению, Элис продолжает искать виновных в глобальной катастрофе. Вызов, который она принимала в Токио, Нью-Йорке, Вашингтоне и даже в Москве, приводит ее в итоге к взрывающему сознание откровению, которое заставит ее переосмыслить все, что она полагала правдой. С помощью новых союзников и старых друзей, Элис будет сражаться за выживание и убегать из враждебного мира. Отсчет времени начат...

Автор рипа:Tiberiumsun69
Качество: BDRip 720p / 60 FPS
Формат: MKV
Видео кодек: AVC
Аудио кодек:AC3
Видео: 1280x536 (2.40:1), 5432 kbps, 59,940 fps
Аудио №1: русский/ 5.1/ 48 kHz/ 640 kbps/ AC3/ |Дубляж BD CEE|
Аудио №2: английский/ 5.1/ 48 kHz/ 640 kbps/ AC3
Навигация по главам: есть


Код:

General
Unique ID                                : 253486216479674002307709558808268867744 (0xBEB3AB63175E1EA4BAF692017E4988A0)
Complete name                            : A:\720p 60fps\Обитель зла 720p 60fps\Обитель зла 5 720p 60fps.mkv
Format                                   : Matroska
Format version                           : Version 4 / Version 2
File size                                : 4.57 GiB
Duration                                 : 1h 35mn
Overall bit rate                         : 6 849 Kbps
Encoded date                             : UTC 2014-08-05 22:17:39
Writing application                      : mkvmerge v6.9.1 ('Blue Panther') 64bit built on Apr 18 2014 18:23:38
Writing library                          : libebml v1.3.0 + libmatroska v1.4.1

Video
ID                                       : 1
Format                                   : AVC
Format/Info                              : Advanced Video Codec
Format profile                           : High@L4.1
Format settings, CABAC                   : Yes
Format settings, ReFrames                : 9 frames
Codec ID                                 : V_MPEG4/ISO/AVC
Duration                                 : 1h 35mn
Bit rate                                 : 5 432 Kbps
Width                                    : 1 280 pixels
Height                                   : 536 pixels
Display aspect ratio                     : 2.40:1
Frame rate                               : 59.940 fps
Color space                              : YUV
Chroma subsampling                       : 4:2:0
Bit depth                                : 8 bits
Scan type                                : Progressive
Bits/(Pixel*Frame)                       : 0.132
Stream size                              : 3.63 GiB (79%)
Writing library                          : x264 core 130 r2273 b3065e6
Encoding settings                        : cabac=1 / ref=9 / deblock=1:-1:-1 / analyse=0x3:0 / me=umh / subme=9 / psy=1 / psy_rd=1.00:0.10 / mixed_ref=1 / me_range=42 / chroma_me=0 / trellis=2 / 8x8dct=1 / cqm=0 / deadzone=21,11 / fast_pskip=0 / chroma_qp_offset=-3 / threads=12 / lookahead_threads=1 / sliced_threads=0 / nr=0 / decimate=0 / interlaced=0 / bluray_compat=0 / constrained_intra=0 / bframes=6 / b_pyramid=2 / b_adapt=2 / b_bias=0 / direct=1 / weightb=1 / open_gop=0 / weightp=2 / keyint=594 / keyint_min=59 / scenecut=40 / intra_refresh=0 / rc=crf / mbtree=0 / crf=15.0 / qcomp=0.60 / qpmin=0 / qpmax=69 / qpstep=4 / ip_ratio=1.40 / pb_ratio=1.30 / aq=0
Language                                 : English
Default                                  : Yes
Forced                                   : No

Audio #1
ID                                       : 2
Format                                   : AC-3
Format/Info                              : Audio Coding 3
Mode extension                           : CM (complete main)
Codec ID                                 : A_AC3
Duration                                 : 1h 35mn
Bit rate mode                            : Constant
Bit rate                                 : 640 Kbps
Channel(s)                               : 6 channels
Channel positions                        : Front: L C R, Side: L R, LFE
Sampling rate                            : 48.0 KHz
Bit depth                                : 16 bits
Compression mode                         : Lossy
Stream size                              : 438 MiB (9%)
Title                                    : Дубляж
Language                                 : Russian
Default                                  : Yes
Forced                                   : No

Audio #2
ID                                       : 3
Format                                   : AC-3
Format/Info                              : Audio Coding 3
Mode extension                           : CM (complete main)
Codec ID                                 : A_AC3
Duration                                 : 1h 35mn
Bit rate mode                            : Constant
Bit rate                                 : 640 Kbps
Channel(s)                               : 6 channels
Channel positions                        : Front: L C R, Side: L R, LFE
Sampling rate                            : 48.0 KHz
Bit depth                                : 16 bits
Compression mode                         : Lossy
Stream size                              : 438 MiB (9%)
Title                                    : Original
Language                                 : English
Default                                  : No
Forced                                   : No

Text #1
ID                                       : 4
Format                                   : UTF-8
Codec ID                                 : S_TEXT/UTF8
Codec ID/Info                            : UTF-8 Plain Text
Title                                    : Форсированные
Language                                 : Russian
Default                                  : Yes
Forced                                   : No

Text #2
ID                                       : 5
Format                                   : UTF-8
Codec ID                                 : S_TEXT/UTF8
Codec ID/Info                            : UTF-8 Plain Text
Title                                    : Полные
Language                                 : Russian
Default                                  : No
Forced                                   : No

Text #3
ID                                       : 6
Format                                   : UTF-8
Codec ID                                 : S_TEXT/UTF8
Codec ID/Info                            : UTF-8 Plain Text
Title                                    : Полные
Language                                 : English
Default                                  : No
Forced                                   : No

Menu
00:00:00.000                             : :Chapter 01
00:07:43.045                             : :Chapter 02
00:14:32.538                             : :Chapter 03
00:21:38.839                             : :Chapter 04
00:25:39.329                             : :Chapter 05
00:29:31.186                             : :Chapter 06
00:34:16.846                             : :Chapter 07
00:39:14.769                             : :Chapter 08
00:45:29.435                             : :Chapter 09
00:50:27.441                             : :Chapter 10
00:54:42.070                             : :Chapter 11
01:00:14.861                             : :Chapter 12
01:05:38.476                             : :Chapter 13
01:11:22.903                             : :Chapter 14
01:16:15.571                             : :Chapter 15
01:21:29.384                             : :Chapter 16

..::Скриншоты::..

Просьба к заливающим на другик сайты "Подписывайте пожалуйста автора рипа Tiberiumsun69"

© Оформление by Tiberiumsun69Авторская группа в ВК
pb.wtf



Скачать Обитель зла через торрент http://pic.kartinco.top/new/img/2014-08/09/u68czvu28ulvkr8etqkbyf7fe.png Скачать фильм Обитель зла через торрент бесплантно в хорошем качестве Описание: В гигантской подземной лаборатории на волю вырывается опаснейший вирус, мгновенно превращая своих жертв в прожорливых зомби. ... 10 10 28
Info! Золотая раздача, скачанное не засчитывается.
Торрент: Зарегистрирован [2014-08-09 02:09] · скачан: 231 раз
Статус: √ проверено
Размер: 24.68 GB
Как cкачать? Как скачать Обитель зла через торрент | qTorrent

% Раздел Тема Автор DL S | L
Сборники и Сиквелы (48-60 fps) [ 48.93 GB ] Обитель зла / Resident Evil [Антология] [2002-2012 BDRip 1080p DUB] 60fps Tiberiumsun69 Скачать
3 | 1
Сборники и Сиквелы (48-60 fps) [ 16.05 GB ] Обитель зла : Антология / Resident Evil : Antology [2002-2012 Германия BDRip-AVC 60fps ] от R.G. HD-Films Tiberiumsun69 Скачать
2 | 0


Последний раз редактировалось: Tiberiumsun69 (2018-02-07 08:05), всего редактировалось 1 раз

28-11-2019 20:33  

Отключить всю рекламу на сайте

13-12-2014 15:48 Обитель зла Скачать торрент  

скорости плиз!pb.wtf



26-12-2014 17:00 Обитель зла Скачать торрент  

вствньте на раздачу плизpb.wtf



26-12-2014 23:51 Обитель зла Скачать торрент  

встаньте пожалуйста на раздачу фильмы отличные не до залилось немногоpb.wtf



08-01-2015 13:02 Обитель зла Скачать торрент  

что-то сколько народ не просил, скорости нет до сих пор...
79 человек скачали... встаньте на раздачу-то, поддержите.pb.wtf



14-01-2015 09:30 Обитель зла Скачать торрент  

чет хрень какая то... качаеться со скоростью 30кб.... pb.wtf



02-05-2015 10:55 Обитель зла Скачать торрент  

Очень прошу, встаньте на раздачу плиз. 2 недели скачать уже не могу.pb.wtf



08-05-2015 18:29 Обитель зла Скачать торрент  

Дайте скорости пожалуйста хоть первые две части скачатьpb.wtf



15-07-2015 10:20 Обитель зла Скачать торрент  

На раздачу вернитесь пожалуйста.pb.wtf



17-08-2015 14:57 Обитель зла Скачать торрент  

скорости ааааааpb.wtf



17-08-2015 16:20 Обитель зла Скачать торрент  

Поставил на закачку только для того чтобы раздать желающим, так как сам фильм по мне не о чём!!!

Ну и какого х... нылись о скорости? Сижу на раздаче уже несколько дней без ограничений скорости с 50mb возможных, а за всё время всего 7 gb ушло! Еще неделю и сношу к чертям сабачим!pb.wtf



07-10-2016 22:10 Обитель зла Скачать торрент  

капец раздача будет нет? или скачкаpb.wtf



    Дорогой пользователь! Огромная просьба, поблагодарите релизера, оцените раздачу и оставьте свои комментарий, если Вы скачали Обитель зла через торрент бесплатно! Внесите свою лепту в развитие PiratBit!
    Комментировать посты могут только пользователи прошедшие не сложную регистрацию
    Показать сообщения:    

    Обитель зла через торрент
    Скачать бесплатно Обитель зла
    Обитель зла скачать торрент
    Обитель зла смотреть онлайн
    Cкачать фильм Обитель зла бесплатно
    Обитель зла скачать торрент в хорошем качестве
    Обитель зла смотреть онлайн бесплатно в хорошем качестве


    Вы не можете начинать темы
    Вы не можете отвечать на сообщения
    Вы не можете редактировать свои сообщения
    Вы не можете удалять свои сообщения
    Вы не можете голосовать в опросах
    Вы не можете прикреплять файлы к сообщениям
    Вы можете скачивать файлы