Ссылка на приватное зеркало нашего сайта всего за 1$. Внимание количество ограничено!!!

2 сезон

iTunes

1 сезон

1

iTunes

iTunes

iTunes

1 сезон

RePack

30

ИГРА 18+

pack

ВАЖНО

!!Акция!!

Alien_RageХит недели

RePack

MK11
pack

Забери бонус

RePack

jed

!!Акция!!

Alien_Rage

RePack

fifa19

RePack

Assassins Creed: Odyssey

RePack

NEED FOR SPEED™ PAYBACK

4 сезон

9 сезон

Бесстыжие 9 сезон

Все сериалы

все сериалы на PB.wtf

RePack

FAR CRY 5
  

Ясмин / Сезон: 1 / Серии 1-62 из 62 (Вячеслав Каминский, Ксения Заруцкая) [2013, Россия, мелодрама, HDTVRip) pb.wtf

Ясмин через торрент pb.wtf

Размер: 33.28 GB | Добавлен: 6 лет 2 мес. назад | Торрент скачан:124 раза
Скачать  

09-08-2014 09:21 Ясмин Скачать торрент  

Ясмин


  • Год выпуска: 2013
  • Страна: Россия
  • Жанр: мелодрама
  • Продолжительность: 00:42:31(Серия)
  • Перевод: Не требуется

  • Режиссер: Вячеслав Каминский, Ксения Заруцкая
  • В ролях:

    Екатерина Крупенина (Лена), Екатерина Радченко (Ксюша), Наталья Дворецкая (Маша), Виталий Кудрявцев (Вадим), Ильгар Мусаев (Мехмед), Амалия Панахова (покупательница из России), Анна Масальская (Саша Меер), Ника Балина (Катя), Кристина Кучеренко (Юля), Денис Жариков (Антон), Екатерина Мельник (Маша), Александр Алёшкин (Вася)

  • Описание:
    Три русские девушки, разного возраста, разного происхождения и социального статуса приезжают в Стамбул. Лена строит карьеру в отельном бизнесе, Маша бежит от запутанных отношений с мужем родной сестры, Ксюша едет к мужчине, в которого влюбилась на отдыхе.
    Все три героини неизбежно вливаются в жизнь огромного стамбульского района, прообразом которого вполне можно считать реальный Султан-Ахмет. Занимаясь обычными вещами: торгуя дубленками и золотом, попадая в полицию, влюбляясь и расставаясь, они сами не замечают, как втягиваются в интриги, достойные 1001 ночи.
  • Рейтинг:



  • Качество: HDTVRip
  • Формат: :AVI
  • Видео кодек: XviD
  • Аудио кодек: AC3
  • Видео: 720x400 (16:9), 1604 kbps, 25 fps, 0,223 bpp
  • Аудио: 2.0 / 48 kHz / 192 kbps / 16 bit
  • Релиз от: GEKADOL

    Не нашли то, что искали? Для вас "Стол заказов" "Жмём сюда!"

    Код:

    Внимание! Раздача ведётся путём добавления новых серий; при каждом добавлении создаётся новый торрент. Чтобы начать докачку новой серии, пользователям необходимо сделать следующее:
    (1) остановить скачивание,
    (2) удалить старый торрент у себя из клиента (старые серии удалять не надо),
    (3) скачать новый торрент и запустить его у себя в клиенте вместо старого, при этом указать клиенту путь в старую папку куда и должно происходить скачивание новых серий.
    Ваш клиент при этом должен произвести хеширование (проверку) старой папки (если не производит сам - помогите ему сделать это), и будет докачивать только те серии которых у вас ещё нет. Старые серии при этом не удаляются, а продолжают раздаваться!
    Eсли вы уже удалили старые серии, то предотвратить повторную закачку старых серий можно, отжав галочку в соответсвующих местах при запуске нового торрента. По возможности, желательно не удалять старые серии как можно дольше чтобы релизёр не столько продолжал раздавать старые серии, а смог сконцентрироваться на новых.


    Код:

    General
    Complete name                            : G:\Yasmin.2013.HDTVRip.MediaClub\Yasmin.(040.seriya.iz.62).2013.HDTVRip.MediaClub.avi
    Format                                   : AVI
    Format/Info                              : Audio Video Interleave
    File size                                : 550 MiB
    Duration                                 : 42mn 31s
    Overall bit rate                         : 1 807 Kbps
    Writing application                      : VirtualDubMod 1.5.10.3 | www.virtualdub-fr.org || (build 2550/release)
    Writing library                          : VirtualDubMod build 2550/release

    Video
    ID                                       : 0
    Format                                   : MPEG-4 Visual
    Format profile                           : Advanced Simple@L5
    Format settings, BVOP                    : 1
    Format settings, QPel                    : No
    Format settings, GMC                     : No warppoints
    Format settings, Matrix                  : Custom
    Codec ID                                 : XVID
    Codec ID/Hint                            : XviD
    Duration                                 : 42mn 31s
    Bit rate                                 : 1 605 Kbps
    Width                                    : 720 pixels
    Height                                   : 400 pixels
    Display aspect ratio                     : 16:9
    Frame rate                               : 25.000 fps
    Color space                              : YUV
    Chroma subsampling                       : 4:2:0
    Bit depth                                : 8 bits
    Scan type                                : Progressive
    Compression mode                         : Lossy
    Bits/(Pixel*Frame)                       : 0.223
    Stream size                              : 488 MiB (89%)
    Writing library                          : XviD 73

    Audio
    ID                                       : 1
    Format                                   : AC-3
    Format/Info                              : Audio Coding 3
    Mode extension                           : CM (complete main)
    Codec ID                                 : 2000
    Duration                                 : 42mn 31s
    Bit rate mode                            : Constant
    Bit rate                                 : 192 Kbps
    Channel(s)                               : 2 channels
    Channel positions                        : Front: L R
    Sampling rate                            : 48.0 KHz
    Bit depth                                : 16 bits
    Compression mode                         : Lossy
    Stream size                              : 58.4 MiB (11%)
    Alignment                                : Split accross interleaves
    Interleave, duration                     : 40 ms (1.00 video frame)
    Interleave, preload duration             : 500 ms


    Скриншоты:
    скриншот   скриншот   скриншот   скриншот  

    Раздача ведётся путём добавления новых серий. Добавлена 62 серия (26.08.2014).Просьба перекачать торрент файл.

    pb.wtf



  • Скачать Ясмин через торрент http://i65.fastpic.ru/big/2014/0809/05/cb0062ed03dfa7c4d5e063f31f1fda05.jpg Скачать фильм Ясмин через торрент бесплантно в хорошем качестве Описание: Три русские девушки, разного возраста, разного происхождения и социального статуса приезжают в Стамбул. Лена строит карьеру в ... 9.1 10 11
    Info! Золотая раздача, скачанное не засчитывается.
    Торрент: Зарегистрирован [2014-08-26 00:43] · скачан: 124 раз
    Статус: √ проверено
    Размер: 33.28 GB
    Как cкачать? Как скачать Ясмин через торрент | qTorrent

    28-11-2019 20:33  

    Отключить всю рекламу на сайте

      Дорогой пользователь! Огромная просьба, поблагодарите релизера, оцените раздачу и оставьте свои комментарий, если Вы скачали Ясмин через торрент бесплатно! Внесите свою лепту в развитие PiratBit!
      Комментировать посты могут только пользователи прошедшие не сложную регистрацию
      Показать сообщения:    

      Ясмин через торрент
      Скачать бесплатно Ясмин
      Ясмин скачать торрент
      Ясмин смотреть онлайн
      Cкачать фильм Ясмин бесплатно
      Ясмин скачать торрент в хорошем качестве
      Ясмин смотреть онлайн бесплатно в хорошем качестве


      Вы не можете начинать темы
      Вы не можете отвечать на сообщения
      Вы не можете редактировать свои сообщения
      Вы не можете удалять свои сообщения
      Вы не можете голосовать в опросах
      Вы не можете прикреплять файлы к сообщениям
      Вы можете скачивать файлы