Ссылка на приватное зеркало нашего сайта всего за 1$. Внимание количество ограничено!!!

2 сезон

iTunes

1 сезон

1

2 сезон

2 сезон

iTunes

1 сезон

RePack

30

Новинка

ВАЖНО

ИГРА 18+

pack

RePack

MK11
pack

Забери бонус

RePack

jed

!!Акция!!

Alien_Rage

RePack

fifa19

RePack

Assassins Creed: Odyssey

RePack

NEED FOR SPEED™ PAYBACK

4 сезон

9 сезон

Бесстыжие 9 сезон

Все сериалы

все сериалы на PB.wtf

RePack

FAR CRY 5
  

Букашки. Приключение в Долине муравьев / Minuscule - La vallée des fourmis perdues (Хелен Жиро / Томас Забо) [2013 г., мультфильм, приключения, семейный, BDRip 720p] pb.wtf

Букашки. Приключение в Долине муравьев через торрент pb.wtf

Качают: 1 [ 0 KB/s ]
Размер: 3.26 GB | Добавлен: 6 лет 3 мес. назад | Торрент скачан:585 раз
Скачать  

09-08-2014 11:57 Букашки. Приключение в Долине муравьев Скачать торрент  

Букашки. Приключение в Долине муравьев / Minuscule - La vallée des fourmis perdues Год выпуска: 2013
Страна: Франция, Бельгия
Жанр: мультфильм, приключения, семейный
Продолжительность: 01:28:27




Перевод: Не требуется




Режиссер: Хелен Жиро / Томас Забо









Описание: Активные и любознательные черные муравьишки обнаруживают брошенную после пикника коробку с сахаром. Дружный отряд муравьишек вместе с Божьей коровкой решают переправить лакомство в муравейник. Но сладкая коробка уже успела нарушить спокойствие во всей долине, и свои планы на лакомство появились у других обитателей леса, в частности — у злобных красных муравьев-захватчиков. А, стало быть, на пути к заветной цели черным муравьишкам предстоит преодолеть массу опасностей и приключений.




Качество: BDRip 720p
Формат: MKV
Видео кодек: AVC
Аудио кодек: DTS
Видео: AVC, 1280x544 (2.35), 23.976 fps, 4 508 Kbps
Аудио: DTS, 48.0 KHz, 6 ch, 755 Kbps, CBR




скриншот   скриншот   скриншот  

скриншот   скриншот  

скриншот  
General
Unique ID : 185879368151389234097256645708587270764 (0x8BD71069F2F3E3DCAEEA6E7DED9D026C)
Complete name : D:\Моя музыка\Pr1kljuch3nie.v.D0line.murav1ev.2013.BDRip.720p.mkv
Format : Matroska
Format version : Version 4 / Version 2
File size : 3.26 GiB
Duration : 1h 28mn
Overall bit rate : 5 277 Kbps
Encoded date : UTC 2014-08-02 11:40:53
Writing application : mkvmerge v6.6.0 ('The Edge Of The In Between') built on Dec 1 2013 17:55:00
Writing library : libebml v1.3.0 + libmatroska v1.4.1

Video
ID : 1
Format : AVC
Format/Info : Advanced Video Codec
Format profile : High@L4.1
Format settings, CABAC : Yes
Format settings, ReFrames : 5 frames
Codec ID : V_MPEG4/ISO/AVC
Duration : 1h 28mn
Bit rate : 4 508 Kbps
Width : 1 280 pixels
Height : 544 pixels
Display aspect ratio : 2.35:1
Frame rate mode : Constant
Frame rate : 23.976 fps
Color space : YUV
Chroma subsampling : 4:2:0
Bit depth : 8 bits
Scan type : Progressive
Bits/(Pixel*Frame) : 0.270
Stream size : 2.72 GiB (83%)
Writing library : x264 core 142 r2431 ac76440
Encoding settings : cabac=1 / ref=5 / deblock=1:0:0 / analyse=0x3:0x133 / me=umh / subme=8 / psy=1 / psy_rd=1.00:0.00 / mixed_ref=1 / me_range=16 / chroma_me=1 / trellis=1 / 8x8dct=1 / cqm=0 / deadzone=21,11 / fast_pskip=0 / chroma_qp_offset=-2 / threads=12 / lookahead_threads=2 / sliced_threads=0 / nr=0 / decimate=1 / interlaced=0 / bluray_compat=0 / constrained_intra=0 / bframes=3 / b_pyramid=2 / b_adapt=1 / b_bias=0 / direct=1 / weightb=1 / open_gop=0 / weightp=2 / keyint=250 / keyint_min=23 / scenecut=40 / intra_refresh=0 / rc_lookahead=40 / rc=2pass / mbtree=1 / bitrate=4508 / ratetol=1.0 / qcomp=0.60 / qpmin=0 / qpmax=69 / qpstep=4 / cplxblur=20.0 / qblur=0.5 / ip_ratio=1.40 / aq=1:1.00
Language : English
Default : Yes
Forced : No

Audio
ID : 2
Format : DTS
Format/Info : Digital Theater Systems
Mode : 16
Format settings, Endianness : Big
Codec ID : A_DTS
Duration : 1h 28mn
Bit rate mode : Constant
Bit rate : 768 Kbps
Channel(s) : 6 channels
Channel positions : Front: L C R, Side: L R, LFE
Sampling rate : 48.0 KHz
Bit depth : 16 bits
Compression mode : Lossy
Stream size : 486 MiB (15%)
Default : Yes
Forced : No
pb.wtf



Скачать Букашки. Приключение в Долине муравьев через торрент http://i65.fastpic.ru/big/2014/0809/17/efd7f47e0a03e4e9b1c657b14f9ea717.png Скачать фильм Букашки. Приключение в Долине муравьев через торрент бесплантно в хорошем качестве Описание: Активные и любознательные черные муравьишки обнаруживают брошенную после пикника коробку с сахаром. Дружный отряд муравьишек ... 10 10 21
Info! Золотая раздача, скачанное не засчитывается.
Торрент: Зарегистрирован [2014-08-09 11:57] · скачан: 585 раз
Статус: √ проверено
Размер: 3.26 GB
Как cкачать? Как скачать Букашки. Приключение в Долине муравьев через торрент | qTorrent

% Раздел Тема Автор DL S | L
Иностранные мультфильмы [ 1.46 GB ] Букашки. Приключение в Долине муравьев / Minuscule - La vallée des fourmis perdues [2013 мультфильм BDRip] [] Twi7ter Скачать
4 | 0
3D Мультфильмы [ 21.64 GB ] Букашки. Приключение в Долине муравьев / Minuscule - La vallée des fourmis perdues [2013 мультфильм Blu-ray 2D 3D] кэп Скачать
1 | 0
Иностранные мультфильмы [ 1.46 GB ] Букашки. Приключение в Долине муравьев / Minuscule - La vallée des fourmis perdues [2013 Мультфильм BDRip-AVC] potroks Скачать
1 | 0
Иностранные мультфильмы [ 1.37 GB ] Букашки. Приключение в Долине муравьев / Minuscule - La vallée des fourmis perdues [2013 мультфильм WEB-DLRip] Ворон Скачать
1 | 0

28-11-2019 20:33  

Отключить всю рекламу на сайте

21-03-2015 20:04 Букашки. Приключение в Долине муравьев Скачать торрент  

Прикольноpb.wtf



20-08-2015 17:33 Букашки. Приключение в Долине муравьев Скачать торрент  

СПАСИБОpb.wtf



    Дорогой пользователь! Огромная просьба, поблагодарите релизера, оцените раздачу и оставьте свои комментарий, если Вы скачали Букашки. Приключение в Долине муравьев через торрент бесплатно! Внесите свою лепту в развитие PiratBit!
    Комментировать посты могут только пользователи прошедшие не сложную регистрацию
    Показать сообщения:    

    Букашки. Приключение в Долине муравьев через торрент
    Скачать бесплатно Букашки. Приключение в Долине муравьев
    Букашки. Приключение в Долине муравьев скачать торрент
    Букашки. Приключение в Долине муравьев смотреть онлайн
    Cкачать фильм Букашки. Приключение в Долине муравьев бесплатно
    Букашки. Приключение в Долине муравьев скачать торрент в хорошем качестве
    Букашки. Приключение в Долине муравьев смотреть онлайн бесплатно в хорошем качестве


    Вы не можете начинать темы
    Вы не можете отвечать на сообщения
    Вы не можете редактировать свои сообщения
    Вы не можете удалять свои сообщения
    Вы не можете голосовать в опросах
    Вы не можете прикреплять файлы к сообщениям
    Вы можете скачивать файлы