2 сезон

iTunes

MVO

1

2 сезон

iTunes

iTunes

1 сезон

RePack

30

Новинка

ВАЖНО

ИГРА 18+

pack

RePack

MK11
pack

Легкие деньги

RePack

jed

RePack

fifa19

RePack

RDR2

RePack

NEED FOR SPEED™ PAYBACK

4 сезон

9 сезон

Бесстыжие 9 сезон

Все сериалы

все сериалы на PB.wtf

RePack

FAR CRY 5

Anonymous, добрый день, мы не успеваем собрать деньги на оплату серверов за декабрь и январь, помогите нам пожалуйста в это трудное время. В качестве благодарности мы отключим Вам всю рекламу на сайте (укажите свой ник в строку Ваше имя)!

×
  
Magnet ссылка

Небритый нянь / Un homme au pair (Лорен Дюссо) [2013, Франция, комедия, HDRip, Профессиональный многоголосый] pb.wtf

Небритый нянь через торрент pb.wtf

Размер: 1.42 GB | Добавлен: 6 лет 5 мес. назад | Торрент скачан:416 раз
Скачать  

09-08-2014 12:22 Небритый нянь Скачать торрент  

Небритый нянь / Un homme au pair


Год выпуска: 2013
Страна: Франция
Жанр:комедия
Продолжительность:01:24:54
Перевод:Профессиональный многоголосый
Режиссер:Лорен Дюссо

  • В ролях:

    Антуан Дюлери (Maxime), Валери Флан (Bikeuse), Гвендолин Амон (Claire), Софи-Шарлотт Юссон (Sophie), Clair Jaz (Mama Gonde), Tella Kpomahou (Maryse), Nathan Lourenço (Jérémy), Clair Magnin (Nicole), Надин Марковичи (Jeanne), Эстель Винсент (Samira)

  • Описание:
    Клэр, директор кадрового агентства и мать девятилетнего ребёнка, остаётся без няни накануне важной встречи. Ей приходится смириться с самым неожиданным вариантом решения этой проблемы..

  • Мировая премьера:21 мая 2013


    Качество: HDRip
    Формат:AVI
    Видео кодек: XviD
    Аудио кодек:AC3
    Видео: XviD, 720x400 (16:9), 2199 kbps, 25 fps, 0,306 bpp
    Аудио: AC3 / 2.0 / 48 kHz / 192 kbps / 16 bit


    Код:

    General
    Complete name                            : D:\Торенты\Небритый нянь - Un homme au pair .avi
    Format                                   : AVI
    Format/Info                              : Audio Video Interleave
    File size                                : 1.42 GiB
    Duration                                 : 1h 24mn
    Overall bit rate                         : 2 402 Kbps
    Movie name                               : Небритый нянь - Un homme au pair [by Edich2]
    Director                                 : Rip by Edich2
    Writing application                      : VirtualDubMod 1.5.10.3 | www.virtualdub-fr.org || (build 2550/release)
    Comment                                  : RuTracker.org

    Video
    ID                                       : 0
    Format                                   : MPEG-4 Visual
    Format profile                           : Advanced Simple@L5
    Format settings, BVOP                    : 2
    Format settings, QPel                    : No
    Format settings, GMC                     : No warppoints
    Format settings, Matrix                  : Custom
    Codec ID                                 : XVID
    Codec ID/Hint                            : XviD
    Duration                                 : 1h 24mn
    Bit rate                                 : 2 200 Kbps
    Width                                    : 720 pixels
    Height                                   : 400 pixels
    Display aspect ratio                     : 16:9
    Frame rate                               : 25.000 fps
    Color space                              : YUV
    Chroma subsampling                       : 4:2:0
    Bit depth                                : 8 bits
    Scan type                                : Progressive
    Compression mode                         : Lossy
    Bits/(Pixel*Frame)                       : 0.306
    Stream size                              : 1.30 GiB (92%)
    Writing library                          : XviD 1.2.1 (UTC 2008-12-04)

    Audio
    ID                                       : 1
    Format                                   : AC-3
    Format/Info                              : Audio Coding 3
    Mode extension                           : CM (complete main)
    Codec ID                                 : 2000
    Duration                                 : 1h 24mn
    Bit rate mode                            : Constant
    Bit rate                                 : 192 Kbps
    Channel(s)                               : 2 channels
    Channel positions                        : Front: L R
    Sampling rate                            : 48.0 KHz
    Bit depth                                : 16 bits
    Compression mode                         : Lossy
    Stream size                              : 117 MiB (8%)
    Alignment                                : Split accross interleaves
    Interleave, duration                     : 40 ms (1.00 video frame)
    Interleave, preload duration             : 500 ms

    Скриншоты:

    Каталог Новинок (Фильмы-трейлеры, Игры, Сериалы, Мультфильмы)

    © Оформление by Raven
    pb.wtf



  • Скачать Небритый нянь через торрент http://pic.kartinco.top/images/6/stazu.jpg Скачать фильм Небритый нянь через торрент бесплантно в хорошем качестве Описание:Клэр, директор кадрового агентства и мать девятилетнего ребёнка, остаётся без няни накануне важной встречи. Ей приходится ... 10 10 16
    Торрент: Зарегистрирован [2014-08-09 12:22] · скачан: 416 раз
    Статус: √ проверено
    Размер: 1.42 GB
    Как cкачать? Как скачать Небритый нянь через торрент | UTorrent

    28-11-2019 20:33  

    Отключить всю рекламу на сайте

    09-08-2014 13:08 Небритый нянь Скачать торрент  

    Кто посмотрел отпишитесь как фильм если не сложно)))pb.wtf



    09-08-2014 13:30 Небритый нянь Скачать торрент  

    ....небритый нянь? адаптаторам сия перевода кол в анус.

    фильм посмотрим.pb.wtf



      Дорогой пользователь! Огромная просьба, поблагодарите релизера, оцените раздачу и оставьте свои комментарий, если Вы скачали Небритый нянь через торрент бесплатно! Внесите свою лепту в развитие PiratBit!
      Комментировать посты могут только пользователи прошедшие не сложную регистрацию
      Показать сообщения:    

      Небритый нянь через торрент
      Скачать бесплатно Небритый нянь
      Небритый нянь скачать торрент
      Небритый нянь смотреть онлайн
      Cкачать фильм Небритый нянь бесплатно
      Небритый нянь скачать торрент в хорошем качестве
      Небритый нянь смотреть онлайн бесплатно в хорошем качестве


      Вы не можете начинать темы
      Вы не можете отвечать на сообщения
      Вы не можете редактировать свои сообщения
      Вы не можете удалять свои сообщения
      Вы не можете голосовать в опросах
      Вы не можете прикреплять файлы к сообщениям
      Вы можете скачивать файлы