новый адрес
Ссылка на приватное зеркало всего за 1$. Внимание количество ограничено!!!

iTunes

1+1

iTunes

мы

WEB-DL

1

iTunes

Чернобыль

iTunes

Ральф против интернета

Лицензия

ПШазам

Лицензия

Оно 2

Лицензия

30
pack

Вам бонус

ВАЖНО

!!Акция!!

Alien_RageХит недели

RePack

Resident Evil 21

ИГРА 18+

pack

RePack

jed

!!Акция!!

Alien_Rage

RePack

fifa19

RePack

Assassins Creed: Odyssey

RePack

NEED FOR SPEED™ PAYBACK

3 сезон

9 сезон

Бесстыжие 9 сезон

Все сериалы

все сериалы на PB.wtf

RePack

FAR CRY 5
Ребята, катастрофически не хватает 1900р. для оплаты серверов за Октябрь (всвязи с блокировками трафик упал в 3 раза), 1-2р., выручайте.
  

Танец реальности / La danza de la realidad (Алехандро Ходоровски) [2013, Чили, Франция, фэнтези, драма, биография, DVDRip, Syb RUS] pb.wtf

Танец реальности через торрент pb.wtf

Размер: 2.02 GB | Добавлен: 5 лет 4 мес. назад | Торрент скачан:104 раза
Скачать  

09-08-2014 14:48 Танец реальности Скачать торрент  

Танец реальности / La danza de la realidad


Год выпуска: 2013
Страна: Чили, Франция
Жанр:фэнтези, драма, биография
Продолжительность:02:12:29
Перевод:Оригинальный
Субтитры: русские (встроенные)
Режиссер:Алехандро Ходоровски

  • В ролях:

    Бронтис Ходоровский (Jaime), Памела Флорес (Sara), Jeremias Herskovits (Alejandro as a child), Алехандро Ходоровски (Alejandro as an Adult), Бастиан Боденхофер (Carlos Ibáñes), Адан Ходоровский (Anarchist), Аксель Ходоровский (Theosophist), Андрес Кокс (Don Aquiles), Алисарине Дуколомб (Jorobada), Франциско Писарро Саенз де Уртури (Joven Salvador), Felipe Pizarro Sáenz De Urtury (Joven Salvador)

  • Описание:
    Алехандро Ходоровский прославился не только своими сюрреалистичными фильмами, часто повергающими зрителей в настоящий шок, но и разработке собственной теории психомагии. Эта методика психологической терапии направлена на избавление от различных психических травм, которые человек получает в первые годы своей жизни. При её разработке Алехандро опирался на собственные воспоминания о детстве.

  • Мировая премьера:18 мая 2013


    Качество: DVDRip
    Формат:AVI
    Видео кодек: XviD
    Аудио кодек:AC3
    Видео: XviD, 720x388 (1.856), 1974 kbps, 24 fps, 0,294 bpp
    Аудио: AC3 / 2.0 / 44 kHz / 192 kbps / 16 bit


    Код:

    General
    Complete name                            : D:\Торенты\La.danza.de.la.realidad_2013.avi
    Format                                   : AVI
    Format/Info                              : Audio Video Interleave
    Format profile                           : OpenDML
    File size                                : 2.02 GiB
    Duration                                 : 2h 12mn
    Overall bit rate                         : 2 178 Kbps
    Writing application                      : VirtualDubModRus 1.5.10.2 (build 2542/release)
    Writing library                          : VirtualDubMod build 2542/release

    Video
    ID                                       : 0
    Format                                   : MPEG-4 Visual
    Format profile                           : Simple@L5
    Format settings, BVOP                    : No
    Format settings, QPel                    : No
    Format settings, GMC                     : No warppoints
    Format settings, Matrix                  : Default (H.263)
    Codec ID                                 : XVID
    Codec ID/Hint                            : XviD
    Duration                                 : 2h 12mn
    Bit rate                                 : 1 974 Kbps
    Width                                    : 720 pixels
    Height                                   : 388 pixels
    Display aspect ratio                     : 1.856
    Frame rate                               : 24.000 fps
    Color space                              : YUV
    Chroma subsampling                       : 4:2:0
    Bit depth                                : 8 bits
    Scan type                                : Progressive
    Compression mode                         : Lossy
    Bits/(Pixel*Frame)                       : 0.294
    Stream size                              : 1.83 GiB (91%)
    Writing library                          : XviD 65

    Audio
    ID                                       : 1
    Format                                   : AC-3
    Format/Info                              : Audio Coding 3
    Mode extension                           : CM (complete main)
    Codec ID                                 : 2000
    Duration                                 : 2h 12mn
    Bit rate mode                            : Constant
    Bit rate                                 : 192 Kbps
    Channel(s)                               : 2 channels
    Channel positions                        : Front: L R
    Sampling rate                            : 44.1 KHz
    Bit depth                                : 16 bits
    Compression mode                         : Lossy
    Stream size                              : 182 MiB (9%)
    Alignment                                : Aligned on interleaves
    Interleave, duration                     : 42 ms (1.00 video frame)
    Interleave, preload duration             : 522 ms

    Скриншоты:

    Каталог Новинок (Фильмы-трейлеры, Игры, Сериалы, Мультфильмы)

    © Оформление by Raven
    pb.wtf



  • Скачать Танец реальности через торрент http://pic.kartinco.top/images/6/stazu.jpg Скачать фильм Танец реальности через торрент бесплантно в хорошем качестве Описание:Алехандро Ходоровский прославился не только своими сюрреалистичными фильмами, часто повергающими зрителей в настоящий шок, но и ... 8.5 10 6
    Торрент: Зарегистрирован [2014-08-09 14:48] · скачан: 104 раз
    Статус: √ проверено
    Размер: 2.02 GB
    Как cкачать? Как скачать Танец реальности через торрент | qTorrent

    28-11-2019 20:33  

    Отключить всю рекламу на сайте

    09-08-2014 22:19 Танец реальности Скачать торрент  

    :jest3: первый скрин,жестьpb.wtf



      Дорогой пользователь! Огромная просьба, поблагодарите релизера, оцените раздачу и оставьте свои комментарий, если Вы скачали Танец реальности через торрент бесплатно! Внесите свою лепту в развитие PiratBit!
      Комментировать посты могут только пользователи прошедшие не сложную регистрацию
      Показать сообщения:    

      Танец реальности через торрент
      Скачать бесплатно Танец реальности
      Танец реальности скачать торрент
      Танец реальности смотреть онлайн
      Cкачать фильм Танец реальности бесплатно
      Танец реальности скачать торрент в хорошем качестве
      Танец реальности смотреть онлайн бесплатно в хорошем качестве


      Вы не можете начинать темы
      Вы не можете отвечать на сообщения
      Вы не можете редактировать свои сообщения
      Вы не можете удалять свои сообщения
      Вы не можете голосовать в опросах
      Вы не можете прикреплять файлы к сообщениям
      Вы можете скачивать файлы