1 сезон

1 сезон

iTunes

1

КиноПоиск HD

Кинопоиск HD

iTunes

13

1 сезон

RePack

30

Ultimate

ВАЖНО

ИГРА 18+

pack

RePack

MK11
pack

Легкие деньги

RePack

jed

RePack

fifa19

RePack

RDR2

RePack

NEED FOR SPEED™ PAYBACK

4 сезон

9 сезон

Бесстыжие 9 сезон

Все сериалы

все сериалы на PB.wtf

RePack

FAR CRY 5
  
Magnet ссылка

Секс ради выживания (Трое) / Survival Island (Three) (Стюарт Рэффил) [2005 г., Драма, приключения, триллер, DVDRip, Профессиональный многоголосый, Лицензия] pb.wtf

Секс ради выживания через торрент pb.wtf

Размер: 1.75 GB | Добавлен: 6 лет 8 мес. назад | Торрент скачан:394 раза
Скачать  

11-08-2014 00:14 Секс ради выживания Скачать торрент  

Секс ради выживания (Трое) / Survival Island (Three)«Тело как оружие»Год выпуска: 2005
Страна: США, Великобритания, Люксембург
Жанр: Драма, приключения, триллер
Продолжительность: 01:31:29
Перевод: Профессиональный многоголосый, Лицензия
Тип релиза: DVDRip
Субтитры: нет

Режиссер: Стюарт Рэффил

Бюджет: $9 000 000
Премьера в мире: 16 ноября 2005



В ролях: Билли Зейн, Келли Брук, Хуан Пабло Ди Паке, Тодд Коллинз, Гэбриэлль Джордан, Гэри Брокетт, Рой Ривера, Мария Виктория Ди Паке, Саммер Дэвис

Описание: Молодожены Джек и Дженнифер решают провести медовый месяц на роскошной яхте. Спустя несколько дней, судно терпит крушение у берегов незнакомого острова. Спастись удается лишь хозяевам яхты и матросу по имени Мануэль. Несчастные оказываются в полной изоляции от большой земли.Приспособленный к жизни в экстремальных условиях, Мануэль берет на себя заботу об изнеженных богачах, добывая для них пищу и воду. Впечатлительной Дженнифер не под силу устоять перед обаянием красавца Мануэля, и довольно скоро между ними вспыхивает непреодолимая страсть.Ревность превращает Джека в монстра, ярость и жестокость которого не знает границ. Мужчины начинают настоящую войну за обладание красавицей, и кто знает, кому суждено выбраться с затерянного острова…

Качество: DVDRip
Формат: AVI
Видео кодек: XviD
Аудио кодек: AC3
Видео: XVID, 720 x 400, 2281 Кбит/сек, 16:9, 25,000 кадров/сек
Аудио#1: AC-3, 448 Кбит/сек, 6 каналов, 48,0 КГц
скриншот   скриншот   скриншот   скриншот  

Общее
Полное имя Секс ради выживания - Three [DVDRip]\Секс ради выживания - Three [DVDRip].avi
Формат : AVI
Формат/Информация : Audio Video Interleave
Размер файла : 1,75 Гбайт
Продолжительность : 1 ч. 31 м.
Общий поток : 2739 Кбит/сек
Программа кодирования : VirtualDubMod 1.5.10.2 (build 2540/release)
Библиотека кодирования : VirtualDubMod build 2540/release

Видео
Идентификатор : 0
Формат : MPEG-4 Visual
Профиль формата : Advanced Simple@L5
Параметр BVOP формата : 1
Параметр QPel формата : Нет
Параметр GMC формата : Без точки перехода
Параметр матрицы формата : Default (MPEG)
Идентификатор кодека : XVID
Идентификатор кодека/Подсказка : XviD
Продолжительность : 1 ч. 31 м.
Битрейт : 2281 Кбит/сек
Ширина : 720 пикселей
Высота : 400 пикселей
Соотношение сторон : 16:9
Частота кадров : 25,000 кадров/сек
Цветовое пространство : YUV
Субдискретизация насыщенности : 4:2:0
Битовая глубина : 8 бит
Тип развёртки : Прогрессивная
Метод сжатия : С потерями
Бит/(Пиксели*Кадры) : 0.317
Размер потока : 1,45 Гбайт (83%)
Библиотека кодирования : XviD 1.2.1 (UTC 2008-12-04)

Аудио
Идентификатор : 1
Формат : AC-3
Формат/Информация : Audio Coding 3
Расширение режима : CM (complete main)
Параметр Endianness формата : Big
Идентификатор кодека : 2000
Продолжительность : 1 ч. 31 м.
Вид битрейта : Постоянный
Битрейт : 448 Кбит/сек
Каналы : 6 каналов
Расположение каналов : Front: L C R, Side: L R, LFE
Частота : 48,0 КГц
Битовая глубина : 16 бит
Метод сжатия : С потерями
Размер потока : 292 Мбайт (16%)
Выравнивание : Разделение по промежуткам
Продолжительность промежутка : 40 мс. (1,00 видеокадр)
Время предзагрузки промежутка : 500 мс.

В фильме героиня Келли Брук предпочла персонажа Хуана Пабло Ди Паке. Примечательно то, что в реальной жизни Келли Брук почти три года встречалась с Билли Зейном. sarcastic
pb.wtf



Скачать Секс ради выживания через торрент https://pic.kartinco.top/new/img/2014-08/11/jquahtg5qn9tyuib6wup4t3is.jpg Скачать фильм Секс ради выживания через торрент бесплантно в хорошем качестве Описание: Молодожены Джек и Дженнифер решают провести медовый месяц на роскошной яхте. Спустя несколько дней, судно терпит крушение у ... 9.9 10 15
Торрент: Зарегистрирован [2014-08-11 00:14] · скачан: 394 раз
Статус: √ проверено
Размер: 1.75 GB
Как cкачать? Как скачать Секс ради выживания через торрент | UTorrent

% Раздел Тема Автор DL S | L
Фильмы (WEB-DL 720p, 1080p) [ 10.87 GB ] Секс ради выживания / Остров на троих / Survival Island / Three [2005 WEB-DL 1080p] Dub + 2xDVO - KORSAR kisa1980 Скачать
2 | 0
Фильмы (WEB-DL 720p, 1080p) [ 6.92 GB ] Секс ради выживания / Остров на троих / Survival Island / Three [2005 WEB-DLRip 720p] Dub + 2xDVO - KORSAR kisa1980 Скачать
1 | 0
Фильмы 2001-2005 [ 1.45 GB ] Секс ради выживания / Survival Island [2005 DVDRip многоголосый ] Sherif Скачать
1 | 0
T Релизы по Парсеру [Игры, Сериалы и Фильмы и другое...] [ 1.41 GB ] Трое / Остатся в живых / Секс ради выживания / Three [2005 Люксембург DVDRip] DVO sanekbest1 Скачать
1 | 0

28-11-2019 20:33  

Отключить всю рекламу на сайте

11-08-2014 07:18 Секс ради выживания Скачать торрент  

ненавижу этот фильмpb.wtf



11-08-2014 07:33 Секс ради выживания Скачать торрент  

rstmanso писал(а):

ненавижу этот фильм

почему??pb.wtf



11-08-2014 11:16 Секс ради выживания Скачать торрент  

тема сисег раскрытаpb.wtf



11-08-2014 12:52 Секс ради выживания Скачать торрент  

кто скачал? напишите отзывы?все в порядке ?ничего странного не заметили??pb.wtf



20-08-2014 02:15 Секс ради выживания Скачать торрент  

KAISIK_89KZ, Главное сиськи все заметили остальное чепуха sarcasticpb.wtf



    Дорогой пользователь! Огромная просьба, поблагодарите релизера, оцените раздачу и оставьте свои комментарий, если Вы скачали Секс ради выживания через торрент бесплатно! Внесите свою лепту в развитие PiratBit!
    Комментировать посты могут только пользователи прошедшие не сложную регистрацию
    Показать сообщения:    

    Секс ради выживания через торрент
    Скачать бесплатно Секс ради выживания
    Секс ради выживания скачать торрент
    Секс ради выживания смотреть онлайн
    Cкачать фильм Секс ради выживания бесплатно
    Секс ради выживания скачать торрент в хорошем качестве
    Секс ради выживания смотреть онлайн бесплатно в хорошем качестве


    Вы не можете начинать темы
    Вы не можете отвечать на сообщения
    Вы не можете редактировать свои сообщения
    Вы не можете удалять свои сообщения
    Вы не можете голосовать в опросах
    Вы не можете прикреплять файлы к сообщениям
    Вы можете скачивать файлы