2 сезон

iTunes

MVO

1

2 сезон

iTunes

iTunes

1 сезон

RePack

30

Новинка

ВАЖНО

ИГРА 18+

pack

RePack

MK11
pack

Легкие деньги

RePack

jed

RePack

fifa19

RePack

RDR2

RePack

NEED FOR SPEED™ PAYBACK

4 сезон

9 сезон

Бесстыжие 9 сезон

Все сериалы

все сериалы на PB.wtf

RePack

FAR CRY 5

Anonymous, добрый вечер, мы не успеваем собрать деньги на оплату серверов за декабрь и январь, помогите нам пожалуйста в это трудное время. В качестве благодарности мы отключим Вам всю рекламу на сайте (укажите свой ник в строку Ваше имя)!

×
  
Magnet ссылка

Заброшенная шахта / Abandoned Mine (Джефф Чемберлен / Jeff Chamberlain) [2013, США, ужасы, триллер, детектив, HDTVRip, MVO] pb.wtf

Заброшенная шахта через торрент pb.wtf

Размер: 1.37 GB | Добавлен: 6 лет 5 мес. назад | Торрент скачан:765 раз
Скачать  

11-08-2014 01:30 Заброшенная шахта Скачать торрент  

Заброшенная шахта / Abandoned Mine
«Five school friends seek adventure on Halloween night by exploring a legendary haunted mine, only to discover to their horror that the ghostly rumors may be true...»


  • Год выпуска: 2013
  • Страна: США
  • Жанр: ужасы, триллер, детектив, приключения

  • Продолжительность: 01:31:20
  • Перевод: Профессиональный многоголосый закадровый)

  • Режиссер: Джефф Чемберлен / Jeff Chamberlain
  • В ролях:

    Алекса ПенаВега (Sharon), Рейли МакКлендон (Brad), Сэйдж Томпсон (Laurie), Чаран Прабхакар (Ethan), Адам Хендершотт (Jim), Валери С. Уолкер (Kelly), Джозеф Бацел (Jarvis), Джордан Чемберлен (Store Customer), Коуди Уокер (Thomas)

  • Описание:
    В поисках приключений на Хэллоуин пятеро школьных друзей проникают в шахту, по слухам населенную призраками, - только чтобы обнаружить, к своему ужасу, что страшные истории могут быть правдой...
  • Рейтинг:



  • Качество: HDTVRip
  • Формат: :AVI
  • Видео кодек: XviD
  • Аудио кодек: AC3
  • Видео: 720x400 (16:9), 1944 kbps, 25 fps, 0,270 bpp
  • Аудио: 2.0 / 48 kHz / 192 kbps / 16 bit
  • Релиз от: GEKADOL

    Код:

    General
    Complete name                            : G:\Abandoned.Mine.2013.HDTVRip_by_Bathory.avi
    Format                                   : AVI
    Format/Info                              : Audio Video Interleave
    File size                                : 1.37 GiB
    Duration                                 : 1h 31mn
    Overall bit rate                         : 2 145 Kbps

    Video
    ID                                       : 0
    Format                                   : MPEG-4 Visual
    Format profile                           : Advanced Simple@L5
    Format settings, BVOP                    : 1
    Format settings, QPel                    : No
    Format settings, GMC                     : No warppoints
    Format settings, Matrix                  : Custom
    Codec ID                                 : XVID
    Codec ID/Hint                            : XviD
    Duration                                 : 1h 31mn
    Bit rate                                 : 1 945 Kbps
    Width                                    : 720 pixels
    Height                                   : 400 pixels
    Display aspect ratio                     : 16:9
    Frame rate                               : 25.000 fps
    Color space                              : YUV
    Chroma subsampling                       : 4:2:0
    Bit depth                                : 8 bits
    Scan type                                : Progressive
    Compression mode                         : Lossy
    Bits/(Pixel*Frame)                       : 0.270
    Stream size                              : 1.24 GiB (91%)
    Writing library                          : XviD 1.2.1 (UTC 2008-12-04)

    Audio
    ID                                       : 1
    Format                                   : AC-3
    Format/Info                              : Audio Coding 3
    Mode extension                           : CM (complete main)
    Codec ID                                 : 2000
    Duration                                 : 1h 31mn
    Bit rate mode                            : Constant
    Bit rate                                 : 192 Kbps
    Channel(s)                               : 2 channels
    Channel positions                        : Front: L R
    Sampling rate                            : 48.0 KHz
    Bit depth                                : 16 bits
    Compression mode                         : Lossy
    Stream size                              : 125 MiB (9%)
    Alignment                                : Aligned on interleaves
    Interleave, duration                     : 64 ms (1.60 video frames)
    Interleave, preload duration             : 192 ms
    Title                                    : Abandoned Mine


    Скриншоты:


    pb.wtf



  • Скачать Заброшенная шахта через торрент http://i68.fastpic.ru/big/2014/0811/fe/a43ee66ed8bb725faed0cfb3edb784fe.jpg Скачать фильм Заброшенная шахта через торрент бесплантно в хорошем качестве Описание: В поисках приключений на Хэллоуин пятеро школьных друзей проникают в шахту, по слухам населенную призраками, - только чтобы ... 9.6 10 27
    Торрент: Зарегистрирован [2014-08-11 01:30] · скачан: 765 раз
    Статус: √ проверено
    Размер: 1.37 GB
    Как cкачать? Как скачать Заброшенная шахта через торрент | UTorrent

    28-11-2019 20:33  

    Отключить всю рекламу на сайте


    11-08-2014 18:43 Заброшенная шахта Скачать торрент  

    ребят фильм просто отвратительный не вздумайте его смотреть полный унылый шлак нечего страшного в этом фильме нет как его еще на кинопоиске 6.14 оценили поражаюсь максимум 1pb.wtf



      Дорогой пользователь! Огромная просьба, поблагодарите релизера, оцените раздачу и оставьте свои комментарий, если Вы скачали Заброшенная шахта через торрент бесплатно! Внесите свою лепту в развитие PiratBit!
      Комментировать посты могут только пользователи прошедшие не сложную регистрацию
      Показать сообщения:    

      Заброшенная шахта через торрент
      Скачать бесплатно Заброшенная шахта
      Заброшенная шахта скачать торрент
      Заброшенная шахта смотреть онлайн
      Cкачать фильм Заброшенная шахта бесплатно
      Заброшенная шахта скачать торрент в хорошем качестве
      Заброшенная шахта смотреть онлайн бесплатно в хорошем качестве


      Вы не можете начинать темы
      Вы не можете отвечать на сообщения
      Вы не можете редактировать свои сообщения
      Вы не можете удалять свои сообщения
      Вы не можете голосовать в опросах
      Вы не можете прикреплять файлы к сообщениям
      Вы можете скачивать файлы