Всегда рабочее зеркало без VPN и Proxy просто перед .vidak.icu напиши любое слово или цифру, Пример http://0weq.vidak.icu

MVO

2 сезон

2 сезон

1

1 сезон

iTunes

2 сезон

13

1 сезон

Распродажа

pack

Рекомендуем

Пиратка

30

ВАЖНО

RePack

MK11

RePack

jed

RePack

fifa19

RePack

RDR2

RePack

NEED FOR SPEED™ PAYBACK

Кинопоиск HD

6 сезон

 Острые козырьки 6 сезон

Все сериалы

все сериалы на PB.wtf

RePack

FAR CRY 5

Anonymous, нам критически не хватает 5601 руб. на оплату серверов и переферии за Апрель, помоги нам пожалуйста, вся надежда только на тебя. В благодарность мы отключим тебе всю рекламу на сайте!

×
  
Magnet ссылка

Выживут только любовники / Only Lovers Left Alive (Джим Джармуш) [2013 г., фэнтези, триллер, драма, HDRip, Авторский одноголосый "А.Матвеев"] pb.wtf

Выживут только любовники через торрент pb.wtf

Размер: 2.04 GB | Добавлен: 7 лет 9 мес. назад | Торрент скачан:87 раз
Смотреть онлайн Выживут только любовники | Скачать    Ребята, помогите собрать деньги на оплату серверов!!!

11-08-2014 16:54 Выживут только любовники Скачать торрент  

Выживут только любовники / Only Lovers Left Alive
Год выпуска: 2013
Страна: Великобритания,Германия,Греция / Recorded Picture Company (RPC), Pandora Filmproduktion, Snow Wolf Produktion
Жанр: фэнтези, триллер, драма
Продолжительность: 02:03:15
Перевод: Авторский одноголосый (А.Матвеев)

Режиссер: Джим Джармуш

В ролях: Тильда Суинтон, Том Хиддлстон, Антон Ельчин, Миа Васиковска, Джон Хёрт, Джеффри Райт, Слиман Дази, Картер Логан, Орели Тепо, Али Эмин

Описание: История древних вампиров Адама и Евы, которые видели ещё татаро-монгольское иго и инквизиции. Адам — рокер из Детройта, играющий андеграунд-музыку. Он уже очень старый, он хочет тишины, покоя, и тихо ненавидит «зомби» (так вампиры зовут людей). Ева же — напротив, весьма жизнерадостная вампирелла постарше, общающаяся с поэтом времён Шекспира, Кристофером Марло, и живущая в Танжере. Она приезжает вытаскивать своего любовника из пучины депрессии. Но идиллию нарушает внезапно заявляющаяся младшая сестра Евы — Ава. Исход ситуации предсказать не в силах никто — выживут только любовники?
Дополнительная информация: В ФИЛЬМЕ ПРИСУТСТВУЕТ НЕНОРМАТИВНАЯ ЛЕКСИКА
Качество: HDRip
Формат: AVI
Видео кодек: XviD
Аудио кодек: AC3
Видео: MPEG4, XviD, 720x384 (1.875), 23.976 fps, 1 913 Kbps (0.289 bit/pixel)
Аудио: AC-3, 48.0 KHz, 6 ch, 448 Kbps, CBR


Общее
Полное имя : G:\кино\Only Lovers Left Alive 2013.HDRip.avi
Формат : AVI
Формат/Информация : Audio Video Interleave
Профиль формата : OpenDML
Размер файла : 2,04 Гбайт
Продолжительность : 2 ч. 3 м.
Общий поток : 2374 Кбит/сек
Программа кодирования : VirtualDubMod 1.5.10.3 | www.virtualdub-fr.org || (build 2550/release)
Библиотека кодирования : VirtualDubMod build 2550/release

Видео
Идентификатор : 0
Формат : MPEG-4 Visual
Профиль формата : Advanced Simple@L5
Параметр BVOP формата : 2
Параметр QPel формата : Нет
Параметр GMC формата : Без точки перехода
Параметр матрицы формата : Default (H.263)
Идентификатор кодека : XVID
Идентификатор кодека/Подсказка : XviD
Продолжительность : 2 ч. 3 м.
Битрейт : 1913 Кбит/сек
Ширина : 720 пикселей
Высота : 384 пикселя
Соотношение сторон : 1,85:1
Частота кадров : 23,976 кадра/сек
Цветовое пространство : YUV
Субдискретизация насыщенности : 4:2:0
Битовая глубина : 8 бит
Тип развёртки : Прогрессивная
Метод сжатия : С потерями
Бит/(Пиксели*Кадры) : 0.289
Размер потока : 1,65 Гбайт (81%)
Библиотека кодирования : XviD 1.2.1 (UTC 2008-12-04)

Аудио
Идентификатор : 1
Формат : AC-3
Формат/Информация : Audio Coding 3
Расширение режима : CM (complete main)
Параметр Endianness формата : Big
Идентификатор кодека : 2000
Продолжительность : 2 ч. 3 м.
Вид битрейта : Постоянный
Битрейт : 448 Кбит/сек
Каналы : 6 каналов
Расположение каналов : Front: L C R, Side: L R, LFE
Частота : 48,0 КГц
Битовая глубина : 16 бит
Метод сжатия : С потерями
Размер потока : 395 Мбайт (19%)
Выравнивание : Разделение по промежуткам
Продолжительность промежутка : 42 мс. (1,00 видеокадр)
Время предзагрузки промежутка : 500 мс.

pb.wtf



Скачать Выживут только любовники через торрент https://pic1.kartinco.top/images/61/8xbh4.jpg Скачать, смотреть онлайн Выживут только любовники бесплантно в хорошем качестве Описание: История древних вампиров Адама и Евы, которые видели ещё татаро-монгольское иго и инквизиции. Адам — рокер из Детройта, играющий ... 10 10 1
Торрент: Зарегистрирован [2014-08-11 16:54] · скачан: 87 раз
Статус: √ проверено
Размер: 2.04 GB
Как cкачать? Как скачать Выживут только любовники через торрент | UTorrent

% Раздел Тема Автор DL S | L
Фильмы [HD 720p, 1080p] (Хороший звук DUB, MVO) [ 7.93 GB ] Выживут только любовники / Only Lovers Left Alive [2013 BDRip 1080p от еnvy / NNNB] DUB еnvy Скачать
10 | 1
Фильмы [HD 720p, 1080p] (Хороший звук DUB, MVO) [ 10.93 GB ] Выживут только любовники / Only Lovers Left Alive [2013 Германия Греция BDRip 720p] + 2xAVO [Сербин Матвеев] + Original + Subs от R.G. PiratFilms Messa-fan Скачать
1 | 0
Официальные cаундтреки к зарубежным фильмам [ 273 MB ] Выживут только любовники / Only Lovers Left Alive - 2014 FLAC lossless Messa-fan Скачать
1 | 0
Арт-хаус и авторское кино [ 1.46 GB ] Выживут только любовники / Only Lovers Left Alive [2013 HDRip ] [НТВ кэп Скачать
1 | 0
Арт-хаус и авторское кино [ 2.05 GB ] Выживут только любовники / Only Lovers Left Alive [2013 HDRip ] [] Ворон Скачать
1 | 0
Арт-хаус и авторское кино [ 1.46 GB ] Выживут только любовники / Only Lovers Left Alive [2013 HDRip ] [] Ворон Скачать
1 | 0
Арт-хаус и авторское кино [ 1.37 GB ] Выживут только любовники / Only Lovers Left Alive [2013 Германия SATRip [ ] Ворон Скачать
1 | 0

28-11-2019 20:33  

Отключить всю рекламу на сайте

    Дорогой пользователь! Огромная просьба, поблагодарите релизера, оцените раздачу и оставьте свои комментарий, если Вы скачали Выживут только любовники через торрент бесплатно!
    Комментировать посты могут только пользователи прошедшие не сложную регистрацию
    Показать сообщения:    

    Выживут только любовники через торрент
    Скачать бесплатно Выживут только любовники
    Выживут только любовники скачать торрент
    Выживут только любовники смотреть онлайн
    Cкачать фильм Выживут только любовники бесплатно
    Выживут только любовники скачать торрент в хорошем качестве
    Выживут только любовники смотреть онлайн бесплатно в хорошем качестве


    Вы не можете начинать темы
    Вы не можете отвечать на сообщения
    Вы не можете редактировать свои сообщения
    Вы не можете удалять свои сообщения
    Вы не можете голосовать в опросах
    Вы не можете прикреплять файлы к сообщениям
    Вы можете скачивать файлы