Anonymous, добрый день, присоединяйтесь к нам в Telegram!, здесь всегда актуальный адрес сайта, оперативная поддержка и многое другое!

>

5.5

iTunes

7.4

iTunes

7.9

iTunes

1

7.7

1 сезон

6.8

iTunes

7.3

1 сезон

13

6.7

1 сезон

8.3

RePack

30

ULTIMATE

pack

9.9

Лицензия

ВАЖНО

ИГРА 18+

pack

7.3

RePack

MK11

7.7

RePack

jed

7.8

RePack

fifa19

8.5

RePack

RDR2

RePack

NEED FOR SPEED™ PAYBACK

4 сезон

9 сезон

Бесстыжие 9 сезон

Все сериалы

все сериалы на PB.wtf

RePack

FAR CRY 5

Anonymous, добрый день, мы катастрофически не успеваем собрать деньги на оплату серверов, помогите нам пожалуйста 5,10,15р., для нас важна любая помощь . В качестве благодарности мы отключим Вам всю рекламу на сайте (укажите свой ник в строку Ваше имя)!

×
  
Magnet ссылка

Гарри Поттер / Harry Potter [Антология] (Крис Коламбус, Альфонсо Куарон, Майк Ньюэлл, Дэвид Йэтс) [2001-2011 гг., Фэнтези, BDRip 1080p] 60fps pb.wtf

Гарри Поттер через торрент pb.wtf

Раздают: 1 [ 3 MB/s ]
Размер: 142.01 GB | Добавлен: 7 лет 2 мес. назад | Торрент скачан:1194 раза
Смотреть онлайн Гарри Поттер | Скачать    Ребята, помогите собрать деньги на оплату серверов!!!

11-08-2014 17:55 Гарри Поттер Скачать торрент  



В 2,5 раза больше кадров!
В 2,5 раза плавнее! (59,94 fps)
Приятного просмотра. =)
Гарри Поттер и философский камень / Harry Potter and the Sorcerer's Stone
«Путешествие в твою мечту»

Год выпуска: 2001
Страна: Великобритания, США
Жанр:фэнтези, приключения, семейный
Продолжительность: 02:32:22
Перевод:Дубляж
Субтитры: Rus (полные), Eng (полные), Rus (форс.)
Режиссер:Крис Коламбус

  • В ролях:

    Дэниэл Рэдклифф (Harry Potter), Руперт Гринт (Ron Weasley), Эмма Уотсон (Hermione Granger), Ричард Харрис (Professor Albus Dumbledore), Алан Рикман (Severus Snape), Мэгги Смит (Professor Minerva McGonagall), Робби Колтрейн (Rubeus Hagrid), Том Фелтон (Draco Malfoy), Мэттью Льюис (Neville Longbottom), Иэн Харт (Professor Quirinus Quirrell), Дэвид Брэдли (Argus Filch), Шон Биггерстаф (Oliver Wood)

  • Описание:
    Жизнь десятилетнего Гарри Поттера нельзя назвать сладкой: его родители умерли, едва ему исполнился год, а от дяди и тётки, взявших сироту на воспитание, достаются лишь тычки да подзатыльники. Но в одиннадцатый день рождения Гарри всё меняется. Странный гость, неожиданно появившийся на пороге, приносит письмо, из которого мальчик узнаёт, что на самом деле он чистокровный волшебник и принят в Хогвартс - школу магии. А уже через пару недель Гарри будет мчаться в поезде Хогвартс-экспресс навстречу новой жизни, где его ждут невероятные приключения, верные друзья и самое главное - ключ к разгадке тайны смерти его родителей.

  • Мировая премьера:4 ноября 2001


    Качество: BDRip 1080p
    Формат:MKV
    Видео кодек: AVC
    Аудио кодек:AC3
    Видео: ~16000 kb/s,1920*792,59,940 кадров/сек
    Аудио 1 Русский: AC3 5.1, 640 kb/s,48,0 КГц
    Аудио 2 Английский: AC3 5.1, 640 kb/s, 48,0 КГц


    Код:

    Общее
    Уникальный идентификатор : 179619301440415354702649265423148366409 (0x87216B4BABD5B303AB97A76B3C2BBA49)
    Полное имя : F:\Гарри Поттер\Гарри Поттер 1 Филосовский камень.mkv
    Формат : Matroska
    Версия формата : Version 4 / Version 2
    Размер файла : 18,4 Гбайт
    Продолжительность : 2 ч. 32 м.
    Общий поток : 17,3 Мбит/сек
    Дата кодирования : UTC 2014-03-23 04:30:38
    Программа кодирования : mkvmerge v6.8.0 ('Theme for Great Cities') 64bit built on Mar 2 2014 21:34:26
    Библиотека кодирования : libebml v1.3.0 + libmatroska v1.4.1

    Видео
    Идентификатор : 1
    Формат : AVC
    Формат/Информация : Advanced Video Codec
    Профиль формата : High@L4.1
    Параметр CABAC формата : Да
    Параметр ReFrames формата : 5 кадров
    Идентификатор кодека : V_MPEG4/ISO/AVC
    Продолжительность : 2 ч. 32 м.
    Битрейт : 16,0 Мбит/сек
    Ширина : 1920 пикселей
    Высота : 792 пикселя
    Соотношение сторон : 2,40:1
    Режим частоты кадров : Постоянный
    Частота кадров : 59,880 кадров/сек
    Частота кадров в оригинале : 59,940 кадров/сек
    Цветовое пространство : YUV
    Субдискретизация насыщенности : 4:2:0
    Битовая глубина : 8 бит
    Тип развёртки : Прогрессивная
    Бит/(Пиксели*Кадры) : 0.176
    Размер потока : 16,7 Гбайт (91%)
    Библиотека кодирования : x264 core 130 r2273 b3065e6
    Настройки программы : cabac=1 / ref=5 / deblock=1:-1:-1 / analyse=0x3:0 / me=umh / subme=9 / psy=1 / psy_rd=1.00:0.10 / mixed_ref=1 / me_range=24 / chroma_me=0 / trellis=1 / 8x8dct=1 / cqm=0 / deadzone=21,11 / fast_pskip=0 / chroma_qp_offset=-3 / threads=6 / lookahead_threads=1 / sliced_threads=0 / nr=0 / decimate=0 / interlaced=0 / bluray_compat=0 / constrained_intra=0 / bframes=5 / b_pyramid=2 / b_adapt=2 / b_bias=0 / direct=3 / weightb=1 / open_gop=0 / weightp=2 / keyint=250 / keyint_min=25 / scenecut=40 / intra_refresh=0 / rc=2pass / mbtree=0 / bitrate=16000 / ratetol=1.0 / qcomp=0.60 / qpmin=0 / qpmax=69 / qpstep=4 / cplxblur=20.0 / qblur=0.5 / ip_ratio=1.40 / pb_ratio=1.30 / aq=1:0.90
    Язык : English
    Default : Да
    Forced : Нет

    Аудио #1
    Идентификатор : 2
    Формат : AC-3
    Формат/Информация : Audio Coding 3
    Расширение режима : CM (complete main)
    Параметр Endianness формата : Big
    Идентификатор кодека : A_AC3
    Продолжительность : 2 ч. 32 м.
    Вид битрейта : Постоянный
    Битрейт : 640 Кбит/сек
    Каналы : 6 каналов
    Расположение каналов : Front: L C R, Side: L R, LFE
    Частота : 48,0 КГц
    Битовая глубина : 16 бит
    Метод сжатия : С потерями
    Размер потока : 697 Мбайт (4%)
    Заголовок : Dub
    Язык : Russian
    Default : Да
    Forced : Нет

    Аудио #2
    Идентификатор : 5
    Формат : AC-3
    Формат/Информация : Audio Coding 3
    Расширение режима : CM (complete main)
    Параметр Endianness формата : Big
    Идентификатор кодека : A_AC3
    Продолжительность : 2 ч. 32 м.
    Вид битрейта : Постоянный
    Битрейт : 640 Кбит/сек
    Каналы : 6 каналов
    Расположение каналов : Front: L C R, Side: L R, LFE
    Частота : 48,0 КГц
    Битовая глубина : 16 бит
    Метод сжатия : С потерями
    Размер потока : 697 Мбайт (4%)
    Заголовок : Original
    Язык : English
    Default : Нет
    Forced : Нет

    Текст #1
    Идентификатор : 3
    Формат : UTF-8
    Идентификатор кодека : S_TEXT/UTF8
    Идентификатор кодека/Информация : UTF-8 Plain Text
    Заголовок : Full
    Язык : Russian
    Default : Нет
    Forced : Нет

    Текст #2
    Идентификатор : 4
    Формат : UTF-8
    Идентификатор кодека : S_TEXT/UTF8
    Идентификатор кодека/Информация : UTF-8 Plain Text
    Заголовок : Full
    Язык : English
    Default : Нет
    Forced : Нет

    Текст #3
    Идентификатор : 6
    Формат : UTF-8
    Идентификатор кодека : S_TEXT/UTF8
    Идентификатор кодека/Информация : UTF-8 Plain Text
    Заголовок : Forced
    Язык : Russian
    Default : Да
    Forced : Да

    Меню
    00:00:00.000 : en:00:00:00.000
    00:04:05.245 : en:00:04:05.245
    00:08:10.990 : en:00:08:10.990
    00:12:17.236 : en:00:12:17.236
    00:18:25.104 : en:00:18:25.104
    00:21:43.469 : en:00:21:43.469
    00:24:41.480 : en:00:24:41.480
    00:28:49.394 : en:00:28:49.394
    00:31:05.030 : en:00:31:05.030
    00:34:05.377 : en:00:34:05.377
    00:37:49.434 : en:00:37:49.434
    00:41:29.320 : en:00:41:29.320
    00:46:13.270 : en:00:46:13.270
    00:50:28.859 : en:00:50:28.859
    00:55:04.301 : en:00:55:04.301
    01:00:55.485 : en:01:00:55.485
    01:03:43.653 : en:01:03:43.653
    01:07:47.897 : en:01:07:47.897
    01:13:49.091 : en:01:13:49.091
    01:20:17.813 : en:01:20:17.813
    01:23:54.363 : en:01:23:54.363
    01:28:32.307 : en:01:28:32.307
    01:31:42.330 : en:01:31:42.330
    01:36:42.463 : en:01:36:42.463
    01:42:34.648 : en:01:42:34.648
    01:49:04.705 : en:01:49:04.705
    01:53:21.461 : en:01:53:21.461
    01:58:09.582 : en:01:58:09.582
    02:03:44.584 : en:02:03:44.584
    02:06:55.942 : en:02:06:55.942
    02:10:55.181 : en:02:10:55.181
    02:14:18.550 : en:02:14:18.550
    02:17:29.408 : en:02:17:29.408
    02:21:44.496 : en:02:21:44.496
    02:24:10.642 : en:02:24:10.642
    02:32:21.257 : en:02:32:21.257

    Скриншоты:

    Каталог Новинок (Фильмы-трейлеры, Игры, Сериалы, Мультфильмы)

    © Оформление by Raven
  • Гарри Поттер и Тайная комната / Harry Potter and the Chamber of Secrets
    «Зло вернулось в Хогвартс»

    Год выпуска: 2002
    Страна: США, Великобритания, Германия
    Жанр:фэнтези, детектив, приключения, семейный
    Продолжительность:: 02:40:56
    Перевод:Дубляж
    Субтитры:Rus (полные), Eng (полные)
    Режиссер:Крис Коламбус

  • В ролях:

    Дэниэл Рэдклифф (Harry Potter), Руперт Гринт (Ron Weasley), Эмма Уотсон (Hermione Granger), Том Фелтон (Draco Malfoy), Кеннет Брана (Professor Gilderoy Lockhart), Бонни Райт (Ginny Weasley), Алан Рикман (Severus Snape), Ричард Харрис (Professor Albus Dumbledore), Мэгги Смит (Professor Minerva McGonagall), Робби Колтрейн (Rubeus Hagrid), Мэттью Льюис (Neville Longbottom), Джейсон Айзекс (Lucius Malfoy)

  • Описание:
    Гарри Поттер переходит на второй курс Школы чародейства и волшебства Хогвартс. Эльф Добби предупреждает Гарри об опасности, которая поджидает его там, и просит больше не возвращаться в школу.
    Юный волшебник не следует совету эльфа и становится свидетелем таинственных событий, разворачивающихся в Хогвартсе. Вскоре Гарри и его друзья узнают о существовании Тайной Комнаты и сталкиваются с новыми приключениями, пытаясь победить темные силы.

  • Мировая премьера:3 ноября 2002


    Качество: BDRip 1080p
    Формат:MKV
    Видео кодек: AVC
    Аудио кодек:AC3
    Видео: : ~16000 kb/s ,1920х800,59,940 кадров/сек
    Аудио 1 Русский: 5.1, 640 kb/s, 48,0 КГц
    Аудио 2 Английский: 5.1, 640 kb/s, 48,0 КГц


    Код:

    Общее
    Уникальный идентификатор : 241051422983469256994170836272126682462 (0xB558D0BBD53512E8878204881224E55E)
    Полное имя : F:\Гарри Поттер\Гарри Поттер 2 Тайная комната.mkv
    Формат : Matroska
    Версия формата : Version 4 / Version 2
    Размер файла : 19,4 Гбайт
    Продолжительность : 2 ч. 40 м.
    Общий поток : 17,3 Мбит/сек
    Дата кодирования : UTC 2014-03-16 08:30:28
    Программа кодирования : mkvmerge v6.8.0 ('Theme for Great Cities') 64bit built on Mar 2 2014 21:34:26
    Библиотека кодирования : libebml v1.3.0 + libmatroska v1.4.1

    Видео
    Идентификатор : 1
    Формат : AVC
    Формат/Информация : Advanced Video Codec
    Профиль формата : High@L4.1
    Параметр CABAC формата : Да
    Параметр ReFrames формата : 5 кадров
    Идентификатор кодека : V_MPEG4/ISO/AVC
    Продолжительность : 2 ч. 40 м.
    Битрейт : 16,0 Мбит/сек
    Ширина : 1920 пикселей
    Высота : 800 пикселей
    Соотношение сторон : 2,40:1
    Режим частоты кадров : Постоянный
    Частота кадров : 59,880 кадров/сек
    Частота кадров в оригинале : 59,940 кадров/сек
    Цветовое пространство : YUV
    Субдискретизация насыщенности : 4:2:0
    Битовая глубина : 8 бит
    Тип развёртки : Прогрессивная
    Бит/(Пиксели*Кадры) : 0.174
    Размер потока : 17,6 Гбайт (91%)
    Библиотека кодирования : x264 core 130 r2273 b3065e6
    Настройки программы : cabac=1 / ref=5 / deblock=1:-1:-1 / analyse=0x3:0 / me=umh / subme=9 / psy=1 / psy_rd=1.00:0.10 / mixed_ref=1 / me_range=24 / chroma_me=0 / trellis=1 / 8x8dct=1 / cqm=0 / deadzone=21,11 / fast_pskip=0 / chroma_qp_offset=-3 / threads=6 / lookahead_threads=1 / sliced_threads=0 / nr=0 / decimate=0 / interlaced=0 / bluray_compat=0 / constrained_intra=0 / bframes=5 / b_pyramid=2 / b_adapt=2 / b_bias=0 / direct=3 / weightb=1 / open_gop=0 / weightp=2 / keyint=250 / keyint_min=25 / scenecut=40 / intra_refresh=0 / rc=2pass / mbtree=0 / bitrate=16000 / ratetol=1.0 / qcomp=0.60 / qpmin=0 / qpmax=69 / qpstep=4 / cplxblur=20.0 / qblur=0.5 / ip_ratio=1.40 / pb_ratio=1.30 / aq=1:0.90
    Язык : English
    Default : Да
    Forced : Нет

    Аудио #1
    Идентификатор : 2
    Формат : AC-3
    Формат/Информация : Audio Coding 3
    Расширение режима : CM (complete main)
    Параметр Endianness формата : Big
    Идентификатор кодека : A_AC3
    Продолжительность : 2 ч. 40 м.
    Вид битрейта : Постоянный
    Битрейт : 640 Кбит/сек
    Каналы : 6 каналов
    Расположение каналов : Front: L C R, Side: L R, LFE
    Частота : 48,0 КГц
    Битовая глубина : 16 бит
    Метод сжатия : С потерями
    Размер потока : 737 Мбайт (4%)
    Заголовок : Dub
    Язык : Russian
    Default : Да
    Forced : Нет

    Аудио #2
    Идентификатор : 5
    Формат : AC-3
    Формат/Информация : Audio Coding 3
    Расширение режима : CM (complete main)
    Параметр Endianness формата : Big
    Идентификатор кодека : A_AC3
    Продолжительность : 2 ч. 40 м.
    Вид битрейта : Постоянный
    Битрейт : 640 Кбит/сек
    Каналы : 6 каналов
    Расположение каналов : Front: L C R, Side: L R, LFE
    Частота : 48,0 КГц
    Битовая глубина : 16 бит
    Метод сжатия : С потерями
    Размер потока : 737 Мбайт (4%)
    Заголовок : Original
    Язык : English
    Default : Нет
    Forced : Нет

    Текст #1
    Идентификатор : 3
    Формат : UTF-8
    Идентификатор кодека : S_TEXT/UTF8
    Идентификатор кодека/Информация : UTF-8 Plain Text
    Заголовок : Full
    Язык : Russian
    Default : Нет
    Forced : Нет

    Текст #2
    Идентификатор : 4
    Формат : UTF-8
    Идентификатор кодека : S_TEXT/UTF8
    Идентификатор кодека/Информация : UTF-8 Plain Text
    Заголовок : Full
    Язык : English
    Default : Нет
    Forced : Нет

    Меню
    00:00:00.000 : en:Chapter 1
    00:03:01.014 : en:Chapter 2
    00:07:55.558 : en:Chapter 3
    00:10:40.640 : en:Chapter 4
    00:14:07.096 : en:Chapter 5
    00:17:57.743 : en:Chapter 6
    00:22:16.126 : en:Chapter 7
    00:25:49.631 : en:Chapter 8
    00:28:50.353 : en:Chapter 9
    00:31:07.991 : en:Chapter 10
    00:35:14.195 : en:Chapter 11
    00:38:00.403 : en:Chapter 12
    00:42:47.982 : en:Chapter 13
    00:48:16.143 : en:Chapter 14
    00:52:16.133 : en:Chapter 15
    00:57:56.973 : en:Chapter 16
    01:03:13.873 : en:Chapter 17
    01:07:50.524 : en:Chapter 18
    01:11:56.145 : en:Chapter 19
    01:17:22.387 : en:Chapter 20
    01:21:33.847 : en:Chapter 21
    01:25:39.926 : en:Chapter 22
    01:29:42.251 : en:Chapter 23
    01:33:30.354 : en:Chapter 24
    01:37:42.898 : en:Chapter 25
    01:42:49.079 : en:Chapter 26
    01:47:01.623 : en:Chapter 27
    01:51:07.994 : en:Chapter 28
    01:55:26.210 : en:Chapter 29
    02:00:53.287 : en:Chapter 30
    02:04:09.775 : en:Chapter 31
    02:09:32.306 : en:Chapter 32
    02:14:32.439 : en:Chapter 33
    02:18:05.944 : en:Chapter 34
    02:21:20.221 : en:Chapter 35
    02:26:35.453 : en:Chapter 36
    02:31:43.094 : en:Chapter 37
    02:40:55.646 : en:Chapter 38

    Скриншоты:

    Каталог Новинок (Фильмы-трейлеры, Игры, Сериалы, Мультфильмы)

    © Оформление by Raven
  • Гарри Поттер и узник Азкабана / Harry Potter and the Prisoner of Azkaban
    «Всё изменится»

    Год выпуска: 2004
    Страна: Великобритания, США
    Жанр:фэнтези, детектив, приключения, семейный
    Продолжительность: 02:21:42
    Перевод:Дубляж
    Субтитры:Rus (полные), Eng (полные), Rus (форс.)
    Режиссер:Альфонсо Куарон

  • В ролях:

    Дэниэл Рэдклифф (Harry Potter), Руперт Гринт (Ron Weasley), Эмма Уотсон (Hermione Granger), Том Фелтон (Draco Malfoy), Гари Олдман (Sirius Black), Дэвид Тьюлис (Professor Lupin), Майкл Гэмбон (Albus Dumbledore), Алан Рикман (Professor Severus Snape), Мэгги Смит (Professor Minerva McGonagall), Робби Колтрейн (Rubeus Hagrid), Эмма Томпсон (Professor Sybil Trelawney), Дэвид Брэдли (Argus Filch)

  • Описание:
    В третьей части экранизации бестселлера о юном волшебнике, полюбившиеся всем герои - Гарри Поттер, Рон и Гермиона - возвращаются уже на третий курс школы чародейства и волшебства «Хогвартс». На этот раз они должны раскрыть тайну узника, сбежавшего из зловещей тюрьмы Азкабан, чье пребывание на воле создает для Гарри смертельную опасность...

  • Мировая премьера:31 мая 2004


    Качество: BDRip 1080p
    Формат:MKV
    Видео кодек: AVC
    Аудио кодек:AC3
    Видео: ~16000 kb/s ,1920*800, 59,880 кадров/сек
    Аудио 1 Русский: 5.1, 640 kb/s, 48,0 КГц
    Аудио 2 Английский: 5.1, 640 kb/s, 48,0 КГц


    Код:

    Общее
    Уникальный идентификатор : 207573730051623163460599860427556121011 (0x9C293F096B02750DA6B0256881DBE9B3)
    Полное имя : F:\Гарри Поттер\Гарри Поттер 3 Узник Азкабана.mkv
    Формат : Matroska
    Версия формата : Version 4 / Version 2
    Размер файла : 17,1 Гбайт
    Продолжительность : 2 ч. 21 м.
    Общий поток : 17,3 Мбит/сек
    Дата кодирования : UTC 2014-03-23 04:50:14
    Программа кодирования : mkvmerge v6.8.0 ('Theme for Great Cities') 64bit built on Mar 2 2014 21:34:26
    Библиотека кодирования : libebml v1.3.0 + libmatroska v1.4.1

    Видео
    Идентификатор : 1
    Формат : AVC
    Формат/Информация : Advanced Video Codec
    Профиль формата : High@L4.1
    Параметр CABAC формата : Да
    Параметр ReFrames формата : 5 кадров
    Идентификатор кодека : V_MPEG4/ISO/AVC
    Продолжительность : 2 ч. 21 м.
    Битрейт : 16,0 Мбит/сек
    Ширина : 1920 пикселей
    Высота : 800 пикселей
    Соотношение сторон : 2,40:1
    Режим частоты кадров : Постоянный
    Частота кадров : 59,880 кадров/сек
    Частота кадров в оригинале : 59,940 кадров/сек
    Цветовое пространство : YUV
    Субдискретизация насыщенности : 4:2:0
    Битовая глубина : 8 бит
    Тип развёртки : Прогрессивная
    Бит/(Пиксели*Кадры) : 0.174
    Размер потока : 15,5 Гбайт (91%)
    Библиотека кодирования : x264 core 130 r2273 b3065e6
    Настройки программы : cabac=1 / ref=5 / deblock=1:-1:-1 / analyse=0x3:0 / me=umh / subme=9 / psy=1 / psy_rd=1.00:0.10 / mixed_ref=1 / me_range=24 / chroma_me=0 / trellis=1 / 8x8dct=1 / cqm=0 / deadzone=21,11 / fast_pskip=0 / chroma_qp_offset=-3 / threads=6 / lookahead_threads=1 / sliced_threads=0 / nr=0 / decimate=0 / interlaced=0 / bluray_compat=0 / constrained_intra=0 / bframes=5 / b_pyramid=2 / b_adapt=2 / b_bias=0 / direct=3 / weightb=1 / open_gop=0 / weightp=2 / keyint=250 / keyint_min=25 / scenecut=40 / intra_refresh=0 / rc=2pass / mbtree=0 / bitrate=16000 / ratetol=1.0 / qcomp=0.60 / qpmin=0 / qpmax=69 / qpstep=4 / cplxblur=20.0 / qblur=0.5 / ip_ratio=1.40 / pb_ratio=1.30 / aq=1:0.90
    Язык : English
    Default : Да
    Forced : Нет

    Аудио #1
    Идентификатор : 2
    Формат : AC-3
    Формат/Информация : Audio Coding 3
    Расширение режима : CM (complete main)
    Параметр Endianness формата : Big
    Идентификатор кодека : A_AC3
    Продолжительность : 2 ч. 21 м.
    Вид битрейта : Постоянный
    Битрейт : 640 Кбит/сек
    Каналы : 6 каналов
    Расположение каналов : Front: L C R, Side: L R, LFE
    Частота : 48,0 КГц
    Битовая глубина : 16 бит
    Метод сжатия : С потерями
    Размер потока : 649 Мбайт (4%)
    Заголовок : Dub
    Язык : Russian
    Default : Да
    Forced : Нет

    Аудио #2
    Идентификатор : 5
    Формат : AC-3
    Формат/Информация : Audio Coding 3
    Расширение режима : CM (complete main)
    Параметр Endianness формата : Big
    Идентификатор кодека : A_AC3
    Продолжительность : 2 ч. 21 м.
    Вид битрейта : Постоянный
    Битрейт : 640 Кбит/сек
    Каналы : 6 каналов
    Расположение каналов : Front: L C R, Side: L R, LFE
    Частота : 48,0 КГц
    Битовая глубина : 16 бит
    Метод сжатия : С потерями
    Размер потока : 649 Мбайт (4%)
    Заголовок : Original
    Язык : English
    Default : Нет
    Forced : Нет

    Текст #1
    Идентификатор : 3
    Формат : UTF-8
    Идентификатор кодека : S_TEXT/UTF8
    Идентификатор кодека/Информация : UTF-8 Plain Text
    Заголовок : Full
    Язык : Russian
    Default : Нет
    Forced : Нет

    Текст #2
    Идентификатор : 4
    Формат : UTF-8
    Идентификатор кодека : S_TEXT/UTF8
    Идентификатор кодека/Информация : UTF-8 Plain Text
    Заголовок : Full
    Язык : English
    Default : Нет
    Forced : Нет

    Текст #3
    Идентификатор : 6
    Формат : UTF-8
    Идентификатор кодека : S_TEXT/UTF8
    Идентификатор кодека/Информация : UTF-8 Plain Text
    Заголовок : Forced
    Язык : Russian
    Default : Да
    Forced : Да

    Меню
    00:00:00.000 : en:Chapter 1
    00:01:40.100 : en:Chapter 2
    00:06:36.229 : en:Chapter 3
    00:12:45.931 : en:Chapter 4
    00:14:52.516 : en:Chapter 5
    00:16:12.513 : en:Chapter 6
    00:18:56.218 : en:Chapter 7
    00:23:50.387 : en:Chapter 8
    00:28:50.729 : en:Chapter 9
    00:31:21.838 : en:Chapter 10
    00:38:50.161 : en:Chapter 11
    00:44:45.307 : en:Chapter 12
    00:47:37.813 : en:Chapter 13
    00:49:39.935 : en:Chapter 14
    00:53:42.844 : en:Chapter 15
    00:57:28.403 : en:Chapter 16
    01:01:23.721 : en:Chapter 17
    01:03:22.924 : en:Chapter 18
    01:07:10.985 : en:Chapter 19
    01:11:53.475 : en:Chapter 20
    01:19:10.078 : en:Chapter 21
    01:22:29.945 : en:Chapter 22
    01:27:30.870 : en:Chapter 23
    01:30:13.366 : en:Chapter 24
    01:34:19.028 : en:Chapter 25
    01:36:56.894 : en:Chapter 26
    01:42:24.471 : en:Chapter 27
    01:45:40.334 : en:Chapter 28
    01:50:03.597 : en:Chapter 29
    01:55:33.343 : en:Chapter 30
    02:00:07.408 : en:Chapter 31
    02:03:16.055 : en:Chapter 32
    02:06:02.513 : en:Chapter 33
    02:08:42.923 : en:Chapter 34
    02:09:47.404 : en:Chapter 35
    02:21:41.910 : en:Chapter 36

    Скриншоты:

    Каталог Новинок (Фильмы-трейлеры, Игры, Сериалы, Мультфильмы)

    © Оформление by Raven
  • Гарри Поттер и Кубок огня / Harry Potter and the Goblet of Fire
    «Впереди темные и страшные времена»

    Год выпуска: 2005
    Страна: Великобритания, США
    Жанр:фэнтези,
    Продолжительность: 02:37:05
    Перевод:Дубляж
    Субтитры:Rus (полные), Eng (полные)
    Режиссер:Майк Ньюэлл

  • В ролях:

    Дэниэл Рэдклифф (Harry Potter), Руперт Гринт (Ron Weasley), Эмма Уотсон (Hermione Granger), Брендан Глисон (Professor Alastor «Mad­Eye» Moody), Алан Рикман (Severus Snape), Майкл Гэмбон (Albus Dumbledore), Рэйф Файнс (Lord Voldemort), Роберт Паттинсон (Cedric Diggory), Робби Колтрейн (Rubeus Hagrid), Мэгги Смит (Minerva McGonagall), Станислав Яневский (Viktor Krum), Клеманс Поэзи (Fleur Delacour)

  • Описание:
    Гарри Поттер, Рон и Гермиона возвращаются на четвертый курс школы чародейства и волшебства «Хогвартс». При таинственных обстоятельствах Гарри отобран в число участников опасного соревнования - Турнира Трех Волшебников, однако проблема в том, что все его соперники - намного старше и сильнее.
    К тому же, знаки указывают на возвращение Лорда Волдеморта. Вскоре Гарри предстоит побороться не только за победу в соревновании, но и, прежде всего, за свою жизнь...

  • Мировая премьера:6 ноября 2005


    Качество: BDRip 1080p
    Формат:MKV
    Видео кодек: AVC
    Аудио кодек:AC3
    Видео: ~16000 kb/s ,1920*800, 59,880 кадров/сек
    Аудио 1 Русский: 5.1, 640 kb/s, 48,0 КГц
    Аудио 2 Английский: 5.1, 640 kb/s, 48,0 КГц


    Код:

    Общее
    Уникальный идентификатор : 195927535539891936449613335184904347647 (0x93664550B314E96DA2E813E602DCDFFF)
    Полное имя : F:\Гарри Поттер\Гарри Поттер 4 Кубок огня.mkv
    Формат : Matroska
    Версия формата : Version 4 / Version 2
    Размер файла : 18,7 Гбайт
    Продолжительность : 2 ч. 37 м.
    Общий поток : 17,1 Мбит/сек
    Дата кодирования : UTC 2014-03-17 18:52:01
    Программа кодирования : mkvmerge v6.8.0 ('Theme for Great Cities') 64bit built on Mar 2 2014 21:34:26
    Библиотека кодирования : libebml v1.3.0 + libmatroska v1.4.1

    Видео
    Идентификатор : 1
    Формат : AVC
    Формат/Информация : Advanced Video Codec
    Профиль формата : High@L4.1
    Параметр CABAC формата : Да
    Параметр ReFrames формата : 5 кадров
    Идентификатор кодека : V_MPEG4/ISO/AVC
    Продолжительность : 2 ч. 37 м.
    Битрейт : 16,0 Мбит/сек
    Ширина : 1920 пикселей
    Высота : 800 пикселей
    Соотношение сторон : 2,40:1
    Режим частоты кадров : Постоянный
    Частота кадров : 59,880 кадров/сек
    Частота кадров в оригинале : 59,940 кадров/сек
    Цветовое пространство : YUV
    Субдискретизация насыщенности : 4:2:0
    Битовая глубина : 8 бит
    Тип развёртки : Прогрессивная
    Бит/(Пиксели*Кадры) : 0.174
    Размер потока : 17,2 Гбайт (92%)
    Библиотека кодирования : x264 core 130 r2273 b3065e6
    Настройки программы : cabac=1 / ref=5 / deblock=1:-1:-1 / analyse=0x3:0 / me=umh / subme=9 / psy=1 / psy_rd=1.00:0.10 / mixed_ref=1 / me_range=24 / chroma_me=0 / trellis=1 / 8x8dct=1 / cqm=0 / deadzone=21,11 / fast_pskip=0 / chroma_qp_offset=-3 / threads=6 / lookahead_threads=1 / sliced_threads=0 / nr=0 / decimate=0 / interlaced=0 / bluray_compat=0 / constrained_intra=0 / bframes=5 / b_pyramid=2 / b_adapt=2 / b_bias=0 / direct=3 / weightb=1 / open_gop=0 / weightp=2 / keyint=250 / keyint_min=25 / scenecut=40 / intra_refresh=0 / rc=2pass / mbtree=0 / bitrate=16000 / ratetol=1.0 / qcomp=0.60 / qpmin=0 / qpmax=69 / qpstep=4 / cplxblur=20.0 / qblur=0.5 / ip_ratio=1.40 / pb_ratio=1.30 / aq=1:0.90
    Язык : English
    Default : Да
    Forced : Нет

    Аудио #1
    Идентификатор : 2
    Формат : AC-3
    Формат/Информация : Audio Coding 3
    Расширение режима : CM (complete main)
    Параметр Endianness формата : Big
    Идентификатор кодека : A_AC3
    Продолжительность : 2 ч. 37 м.
    Вид битрейта : Постоянный
    Битрейт : 448 Кбит/сек
    Каналы : 6 каналов
    Расположение каналов : Front: L C R, Side: L R, LFE
    Частота : 48,0 КГц
    Битовая глубина : 16 бит
    Метод сжатия : С потерями
    Размер потока : 503 Мбайт (3%)
    Заголовок : Dub
    Язык : Russian
    Default : Да
    Forced : Нет

    Аудио #2
    Идентификатор : 5
    Формат : AC-3
    Формат/Информация : Audio Coding 3
    Расширение режима : CM (complete main)
    Параметр Endianness формата : Big
    Идентификатор кодека : A_AC3
    Продолжительность : 2 ч. 37 м.
    Вид битрейта : Постоянный
    Битрейт : 640 Кбит/сек
    Каналы : 6 каналов
    Расположение каналов : Front: L C R, Side: L R, LFE
    Частота : 48,0 КГц
    Битовая глубина : 16 бит
    Метод сжатия : С потерями
    Размер потока : 719 Мбайт (4%)
    Заголовок : Original
    Язык : English
    Default : Нет
    Forced : Нет

    Текст #1
    Идентификатор : 3
    Формат : UTF-8
    Идентификатор кодека : S_TEXT/UTF8
    Идентификатор кодека/Информация : UTF-8 Plain Text
    Заголовок : Full
    Язык : Russian
    Default : Нет
    Forced : Нет

    Текст #2
    Идентификатор : 4
    Формат : UTF-8
    Идентификатор кодека : S_TEXT/UTF8
    Идентификатор кодека/Информация : UTF-8 Plain Text
    Заголовок : Full
    Язык : English
    Default : Нет
    Forced : Нет

    Меню
    00:00:00.000 : en:Chapter 1
    00:03:46.559 : en:Chapter 2
    00:06:09.369 : en:Chapter 3
    00:09:50.089 : en:Chapter 4
    00:13:45.324 : en:Chapter 5
    00:19:14.987 : en:Chapter 6
    00:23:09.388 : en:Chapter 7
    00:29:01.573 : en:Chapter 8
    00:36:26.684 : en:Chapter 9
    00:39:05.009 : en:Chapter 10
    00:41:32.490 : en:Chapter 11
    00:45:36.400 : en:Chapter 12
    00:49:07.778 : en:Chapter 13
    00:54:06.243 : en:Chapter 14
    01:02:46.596 : en:Chapter 15
    01:09:12.982 : en:Chapter 16
    01:14:43.979 : en:Chapter 17
    01:22:27.609 : en:Chapter 18
    01:30:34.762 : en:Chapter 19
    01:39:29.296 : en:Chapter 20
    01:42:42.489 : en:Chapter 21
    01:47:22.936 : en:Chapter 22
    01:50:19.279 : en:Chapter 23
    01:58:54.460 : en:Chapter 24
    02:02:02.315 : en:Chapter 25
    02:06:36.589 : en:Chapter 26
    02:10:01.627 : en:Chapter 27
    02:17:38.083 : en:Chapter 28
    02:23:48.620 : en:Chapter 29
    02:37:05.249 : en:Chapter 30

    Скриншоты:

    Каталог Новинок (Фильмы-трейлеры, Игры, Сериалы, Мультфильмы)

    © Оформление by Raven
  • Гарри Поттер и Орден Феникса / Harry Potter and the Order of the Phoenix
    «Выжить суждено только одному»

    Год выпуска: 2007
    Страна: Великобритания, США
    Жанр:фэнтези, детектив, приключения, семейный
    Продолжительность:02:18:14
    Перевод:Дубляж
    Субтитры:Rus (полные), Eng (полные), Rus (форс.)
    Режиссер:Дэвид Йэтс

  • В ролях:

    Дэниэл Рэдклифф (Harry Potter), Руперт Гринт (Ron Weasley), Эмма Уотсон (Hermione Granger), Гари Олдман (Sirius Black), Рэйф Файнс (Lord Voldemort), Майкл Гэмбон (Albus Percival Wulfric Brian Dumbledore), Том Фелтон (Draco Malfoy), Имелда Стонтон (Dolores Umbridge), Эванна Линч (Luna Lovegood), Алан Рикман (Severus Snape), Джейсон Айзекс (Lucius Malfoy), Мэгги Смит (Minerva McGonagall)

  • Описание:
    Гарри проводит свой пятый год обучения в школе Хогвартс и обнаруживает, что многие из членов волшебного сообщества отрицают сам факт недавнего состязания юного волшебника с воплощением вселенского зла Волдемортом, делая вид, что не имеют ни малейшего представления о том, что злодей вернулся.
    Опасаясь, что почтенный глава Хогвартса Альбус Дамблдор распространяет лживые слухи о возвращении Волдеморта, стремясь подорвать авторитет Министра Магии Корнелиуса Фаджа и в дальнейшем занять его место, Корнелиус назначает нового профессора защиты от темных искусств, который должен будет пристально следить за Дамблдором и студентами Хогвартса.
    Но одобренный министерством курс лекций по защитной магии профессора Долорес Амбридж оказывается на практике абсолютно бесполезным - юные волшебники просто неспособны противостоять действию темных сил, угрожающих им и всему волшебному сообществу. И тогда, по настоянию своих друзей, Гермионы и Рона, Гарри берет инициативу в свои руки.
    Тайно встречаясь с небольшой группой студентов, называющей себя Отрядом Дамблдора, Гарри обучает их самозащите от темных сил, готовя отважных волшебников к необычной схватке, которая ждет их впереди.

  • Мировая премьера:28 июня 2007


    Качество: BDRip 1080p
    Формат:MKV
    Видео кодек: AVC
    Аудио кодек:AC3
    Видео: ~16000 kb/s ,1920*800,59,940 кадров/сек
    Аудио 1 Русский: 5.1, 640 kb/s, 48,0 КГц
    Аудио 2 Английский: 5.1, 640 kb/s, 48,0 КГц


    Код:

    Общее
    Уникальный идентификатор : 231955439010382278001790038846414271407 (0xAE80FE196B2E76D493A42321966C33AF)
    Полное имя : F:\Гарри Поттер\Гарри Поттер 5 Орден Феникса.mkv
    Формат : Matroska
    Версия формата : Version 4 / Version 2
    Размер файла : 16,7 Гбайт
    Продолжительность : 2 ч. 18 м.
    Общий поток : 17,3 Мбит/сек
    Дата кодирования : UTC 2014-03-23 05:31:39
    Программа кодирования : mkvmerge v6.8.0 ('Theme for Great Cities') 64bit built on Mar 2 2014 21:34:26
    Библиотека кодирования : libebml v1.3.0 + libmatroska v1.4.1

    Видео
    Идентификатор : 1
    Формат : AVC
    Формат/Информация : Advanced Video Codec
    Профиль формата : High@L4.1
    Параметр CABAC формата : Да
    Параметр ReFrames формата : 5 кадров
    Идентификатор кодека : V_MPEG4/ISO/AVC
    Продолжительность : 2 ч. 18 м.
    Битрейт : 16,0 Мбит/сек
    Ширина : 1920 пикселей
    Высота : 800 пикселей
    Соотношение сторон : 2,40:1
    Режим частоты кадров : Постоянный
    Частота кадров : 59,880 кадров/сек
    Частота кадров в оригинале : 59,940 кадров/сек
    Цветовое пространство : YUV
    Субдискретизация насыщенности : 4:2:0
    Битовая глубина : 8 бит
    Тип развёртки : Прогрессивная
    Бит/(Пиксели*Кадры) : 0.174
    Размер потока : 15,1 Гбайт (91%)
    Библиотека кодирования : x264 core 130 r2273 b3065e6
    Настройки программы : cabac=1 / ref=5 / deblock=1:-1:-1 / analyse=0x3:0 / me=umh / subme=9 / psy=1 / psy_rd=1.00:0.10 / mixed_ref=1 / me_range=24 / chroma_me=0 / trellis=1 / 8x8dct=1 / cqm=0 / deadzone=21,11 / fast_pskip=0 / chroma_qp_offset=-3 / threads=6 / lookahead_threads=1 / sliced_threads=0 / nr=0 / decimate=0 / interlaced=0 / bluray_compat=0 / constrained_intra=0 / bframes=5 / b_pyramid=2 / b_adapt=2 / b_bias=0 / direct=3 / weightb=1 / open_gop=0 / weightp=2 / keyint=250 / keyint_min=25 / scenecut=40 / intra_refresh=0 / rc=2pass / mbtree=0 / bitrate=16000 / ratetol=1.0 / qcomp=0.60 / qpmin=0 / qpmax=69 / qpstep=4 / cplxblur=20.0 / qblur=0.5 / ip_ratio=1.40 / pb_ratio=1.30 / aq=1:0.90
    Язык : English
    Default : Да
    Forced : Нет

    Аудио #1
    Идентификатор : 2
    Формат : AC-3
    Формат/Информация : Audio Coding 3
    Расширение режима : CM (complete main)
    Параметр Endianness формата : Big
    Идентификатор кодека : A_AC3
    Продолжительность : 2 ч. 18 м.
    Вид битрейта : Постоянный
    Битрейт : 640 Кбит/сек
    Каналы : 6 каналов
    Расположение каналов : Front: L C R, Side: L R, LFE
    Частота : 48,0 КГц
    Битовая глубина : 16 бит
    Метод сжатия : С потерями
    Размер потока : 633 Мбайт (4%)
    Заголовок : Dub
    Язык : Russian
    Default : Да
    Forced : Нет

    Аудио #2
    Идентификатор : 5
    Формат : AC-3
    Формат/Информация : Audio Coding 3
    Расширение режима : CM (complete main)
    Параметр Endianness формата : Big
    Идентификатор кодека : A_AC3
    Продолжительность : 2 ч. 18 м.
    Вид битрейта : Постоянный
    Битрейт : 640 Кбит/сек
    Каналы : 6 каналов
    Расположение каналов : Front: L C R, Side: L R, LFE
    Частота : 48,0 КГц
    Битовая глубина : 16 бит
    Метод сжатия : С потерями
    Размер потока : 633 Мбайт (4%)
    Заголовок : Original
    Язык : English
    Default : Нет
    Forced : Нет

    Текст #1
    Идентификатор : 3
    Формат : UTF-8
    Идентификатор кодека : S_TEXT/UTF8
    Идентификатор кодека/Информация : UTF-8 Plain Text
    Заголовок : Full
    Язык : Russian
    Default : Нет
    Forced : Нет

    Текст #2
    Идентификатор : 4
    Формат : UTF-8
    Идентификатор кодека : S_TEXT/UTF8
    Идентификатор кодека/Информация : UTF-8 Plain Text
    Заголовок : Full
    Язык : English
    Default : Нет
    Forced : Нет

    Текст #3
    Идентификатор : 6
    Формат : UTF-8
    Идентификатор кодека : S_TEXT/UTF8
    Идентификатор кодека/Информация : UTF-8 Plain Text
    Заголовок : Forced
    Язык : Russian
    Default : Да
    Forced : Да

    Меню
    00:00:00.000 : en:Chapter 1
    00:04:50.957 : en:Chapter 2
    00:10:16.782 : en:Chapter 3
    00:15:19.919 : en:Chapter 4
    00:17:43.228 : en:Chapter 5
    00:20:52.417 : en:Chapter 6
    00:25:33.532 : en:Chapter 7
    00:28:07.352 : en:Chapter 8
    00:30:20.985 : en:Chapter 9
    00:34:53.925 : en:Chapter 10
    00:37:41.092 : en:Chapter 11
    00:41:48.506 : en:Chapter 12
    00:44:57.528 : en:Chapter 13
    00:50:57.387 : en:Chapter 14
    00:56:37.394 : en:Chapter 15
    01:03:28.638 : en:Chapter 16
    01:07:39.055 : en:Chapter 17
    01:11:16.105 : en:Chapter 18
    01:16:30.252 : en:Chapter 19
    01:19:16.585 : en:Chapter 20
    01:25:30.959 : en:Chapter 21
    01:31:30.651 : en:Chapter 22
    01:34:49.850 : en:Chapter 23
    01:37:42.356 : en:Chapter 24
    01:41:40.260 : en:Chapter 25
    01:45:59.353 : en:Chapter 26
    01:48:37.177 : en:Chapter 27
    01:52:40.920 : en:Chapter 28
    01:57:30.710 : en:Chapter 29
    02:03:33.239 : en:Chapter 30
    02:05:50.709 : en:Chapter 31
    02:08:26.865 : en:Chapter 32
    02:18:14.202 : en:Chapter 33

    Скриншоты:

    Каталог Новинок (Фильмы-трейлеры, Игры, Сериалы, Мультфильмы)

    © Оформление by Raven
  • Гарри Поттер и Принц-полукровка / Harry Potter and the Half-Blood Prince
    «Секрет темных сил раскрыт»

    Год выпуска: 2009
    Страна: Великобритания, США
    Жанр:фэнтези, детектив, приключения, семейный
    Продолжительность:02:33:31
    Перевод:Дубляж
    Субтитры:Rus (полные), Eng (полные), Rus (форс.)
    Режиссер:Дэвид Йэтс

  • В ролях:

    Дэниэл Рэдклифф (Harry Potter), Руперт Гринт (Ron Weasley), Эмма Уотсон (Hermione Granger), Майкл Гэмбон (Professor Albus Dumbledore), Джим Бродбент (Professor Horace Slughorn), Бонни Райт (Ginny Weasley), Хелена Бонем Картер (Bellatrix Lestrange), Алан Рикман (Professor Severus Snape), Том Фелтон (Draco Malfoy), Эванна Линч (Luna Lovegood), Робби Колтрейн (Rubeus Hagrid), Мэгги Смит (Professor Minerva McGonagall)

  • Описание:
    Теперь не только мир волшебников, но и мир маглов ощущает на себе все возрастающую силу Волан-де-Морта, а Хогвартс уже никак не назовешь надежным убежищем, каким он был раньше. Гарри подозревает, что в самом замке затаилась некая опасность, но Дамблдор больше сосредоточен на том, чтобы подготовить его к финальной схватке, которая, как он знает, уже не за горами. Вместе они пытаются разгадать секрет бессмертия Волан-де-Морта, а для этого Дамблдор приглашает на должность преподавателя по зельеварению своего старинного друга и коллегу - профессора Горация Слизнорта, который обожает устраивать вечеринки для избранных и гордится своими обширными связями в высших кругах. Но этот бонвиван и не подозревает, что как раз от него Дамблдор надеется заполучить самую важную информацию о крестражах.
    Тем временем учеников атакуют самые разные враги, а подростковые эмоции хлещут через край. Гарри начинает понимать, что становится все более неравнодушным к Джинни, однако, и Дин Томас тоже. А Лаванда Браун вбила себе в голову, что Рон - тот самый единственный, которого она ждет, да вот только не учла волшебного эффекта шоколадных конфет Ромильды Вейн! Ну и, наконец, Гермиона пылает жгучей ревностью, но старается не показывать своих чувств. Пока романтические отношения расцветают, лишь один ученик остается в стороне. Он твердо намерен оставить свою метку, темную метку. Любовь витает в воздухе, но впереди ждет беда, и Хогвартс, возможно, уже никогда не будет прежним.

  • Мировая премьера:15 июля 2009


    Качество: BDRip 1080p
    Формат:MKV
    Видео кодек: AVC
    Аудио кодек:AC3
    Видео: ~16000 kb/s ,1920*800, 59,940 кадров/сек
    Аудио 1 Русский: 5.1, 640 kb/s, 48,0 КГц
    Аудио 2 Английский: 5.1, 640 kb/s, 48,0 КГц


    Код:

    Общее
    Уникальный идентификатор : 227187530796995577536788011884706936631 (0xAAEABA1330ECA439A5741F3435BE3737)
    Полное имя : F:\Гарри Поттер\Гарри Поттер 6 Принц-полукровка.mkv
    Формат : Matroska
    Версия формата : Version 4 / Version 2
    Размер файла : 18,3 Гбайт
    Продолжительность : 2 ч. 33 м.
    Общий поток : 17,1 Мбит/сек
    Дата кодирования : UTC 2014-03-23 05:44:35
    Программа кодирования : mkvmerge v6.8.0 ('Theme for Great Cities') 64bit built on Mar 2 2014 21:34:26
    Библиотека кодирования : libebml v1.3.0 + libmatroska v1.4.1

    Видео
    Идентификатор : 1
    Формат : AVC
    Формат/Информация : Advanced Video Codec
    Профиль формата : High@L4.1
    Параметр CABAC формата : Да
    Параметр ReFrames формата : 5 кадров
    Идентификатор кодека : V_MPEG4/ISO/AVC
    Продолжительность : 2 ч. 33 м.
    Битрейт : 16,0 Мбит/сек
    Ширина : 1920 пикселей
    Высота : 800 пикселей
    Соотношение сторон : 2,40:1
    Режим частоты кадров : Постоянный
    Частота кадров : 59,880 кадров/сек
    Частота кадров в оригинале : 59,940 кадров/сек
    Цветовое пространство : YUV
    Субдискретизация насыщенности : 4:2:0
    Битовая глубина : 8 бит
    Тип развёртки : Прогрессивная
    Бит/(Пиксели*Кадры) : 0.174
    Размер потока : 16,8 Гбайт (92%)
    Библиотека кодирования : x264 core 130 r2273 b3065e6
    Настройки программы : cabac=1 / ref=5 / deblock=1:-1:-1 / analyse=0x3:0 / me=umh / subme=9 / psy=1 / psy_rd=1.00:0.10 / mixed_ref=1 / me_range=24 / chroma_me=0 / trellis=1 / 8x8dct=1 / cqm=0 / deadzone=21,11 / fast_pskip=0 / chroma_qp_offset=-3 / threads=6 / lookahead_threads=1 / sliced_threads=0 / nr=0 / decimate=0 / interlaced=0 / bluray_compat=0 / constrained_intra=0 / bframes=5 / b_pyramid=2 / b_adapt=2 / b_bias=0 / direct=3 / weightb=1 / open_gop=0 / weightp=2 / keyint=250 / keyint_min=25 / scenecut=40 / intra_refresh=0 / rc=2pass / mbtree=0 / bitrate=16000 / ratetol=1.0 / qcomp=0.60 / qpmin=0 / qpmax=69 / qpstep=4 / cplxblur=20.0 / qblur=0.5 / ip_ratio=1.40 / pb_ratio=1.30 / aq=1:0.90
    Язык : English
    Default : Да
    Forced : Нет

    Аудио #1
    Идентификатор : 2
    Формат : AC-3
    Формат/Информация : Audio Coding 3
    Расширение режима : CM (complete main)
    Параметр Endianness формата : Big
    Идентификатор кодека : A_AC3
    Продолжительность : 2 ч. 33 м.
    Вид битрейта : Постоянный
    Битрейт : 448 Кбит/сек
    Каналы : 6 каналов
    Расположение каналов : Front: L C R, Side: L R, LFE
    Частота : 48,0 КГц
    Битовая глубина : 16 бит
    Метод сжатия : С потерями
    Размер потока : 492 Мбайт (3%)
    Заголовок : Dub
    Язык : Russian
    Default : Да
    Forced : Нет

    Аудио #2
    Идентификатор : 3
    Формат : AC-3
    Формат/Информация : Audio Coding 3
    Расширение режима : CM (complete main)
    Параметр Endianness формата : Big
    Идентификатор кодека : A_AC3
    Продолжительность : 2 ч. 33 м.
    Вид битрейта : Постоянный
    Битрейт : 640 Кбит/сек
    Каналы : 6 каналов
    Расположение каналов : Front: L C R, Side: L R, LFE
    Частота : 48,0 КГц
    Битовая глубина : 16 бит
    Метод сжатия : С потерями
    Размер потока : 703 Мбайт (4%)
    Заголовок : Original
    Язык : English
    Default : Нет
    Forced : Нет

    Текст #1
    Идентификатор : 4
    Формат : VobSub
    Режим смешивания : zlib
    Идентификатор кодека : S_VOBSUB
    Идентификатор кодека/Информация : The same subtitle format used on DVDs
    Заголовок : Full
    Язык : Russian
    Default : Нет
    Forced : Нет

    Текст #2
    Идентификатор : 5
    Формат : VobSub
    Режим смешивания : zlib
    Идентификатор кодека : S_VOBSUB
    Идентификатор кодека/Информация : The same subtitle format used on DVDs
    Заголовок : Full
    Язык : English
    Default : Нет
    Forced : Нет

    Текст #3
    Идентификатор : 6
    Формат : UTF-8
    Идентификатор кодека : S_TEXT/UTF8
    Идентификатор кодека/Информация : UTF-8 Plain Text
    Заголовок : Forced
    Язык : Russian
    Default : Да
    Forced : Да

    Меню
    00:00:00.000 : en:Chapter 1
    00:05:28.494 : en:Chapter 2
    00:12:13.941 : en:Chapter 3
    00:14:57.146 : en:Chapter 4
    00:18:43.205 : en:Chapter 5
    00:22:30.515 : en:Chapter 6
    00:27:36.029 : en:Chapter 7
    00:32:04.631 : en:Chapter 8
    00:37:48.224 : en:Chapter 9
    00:44:48.352 : en:Chapter 10
    00:49:31.760 : en:Chapter 11
    00:54:55.375 : en:Chapter 12
    01:00:00.305 : en:Chapter 13
    01:03:09.660 : en:Chapter 14
    01:05:57.161 : en:Chapter 15
    01:09:13.691 : en:Chapter 16
    01:14:00.102 : en:Chapter 17
    01:21:09.781 : en:Chapter 18
    01:26:31.477 : en:Chapter 19
    01:33:37.403 : en:Chapter 20
    01:39:57.324 : en:Chapter 21
    01:43:16.273 : en:Chapter 22
    01:48:24.748 : en:Chapter 23
    01:52:30.118 : en:Chapter 24
    01:56:53.673 : en:Chapter 25
    02:02:11.741 : en:Chapter 26
    02:08:33.539 : en:Chapter 27
    02:15:00.300 : en:Chapter 28
    02:19:08.048 : en:Chapter 29
    02:23:54.125 : en:Chapter 30
    02:33:30.659 : en:Chapter 31

    Скриншоты:

    Каталог Новинок (Фильмы-трейлеры, Игры, Сериалы, Мультфильмы)

    © Оформление by Raven
  • Гарри Поттер и Дары Смерти: Часть I / Harry Potter and the Deathly Hallows: Part 1
    «Опасность повсюду»

    Год выпуска: 2010
    Страна: Великобритания, США
    Жанр:фэнтези, детектив, приключения, семейный
    Продолжительность: 02:26:05
    Перевод:Дубляж
    Субтитры:Rus (полные), Eng (полные), Rus (форс.)
    Режиссер:Дэвид Йэтс

  • В ролях:

    Дэниэл Рэдклифф (Harry Potter), Руперт Гринт (Ron Weasley), Эмма Уотсон (Hermione Granger), Том Фелтон (Draco Malfoy), Бонни Райт (Ginny Weasley), Алан Рикман (Professor Severus Snape), Рэйф Файнс (Lord Voldemort), Хелена Бонем Картер (Bellatrix Lestrange), Майкл Гэмбон (Professor Albus Dumbledore), Брендан Глисон (Alastor «Mad-Eye» Moody), Джон Хёрт (Ollivander), Эванна Линч (Luna Lovegood)

  • Описание:
    Гарри Поттера ждёт самое страшное испытание в жизни - смертельная схватка с Волан-де-Мортом. Ждать помощи не от кого - Гарри одинок, как никогда... Друзья и враги Гарри предстают в совершенно неожиданном свете. Граница между Добром и Злом становится всё призрачнее...

  • Мировая премьера:11 ноября 2010


    Качество: BDRip 1080p
    Формат:MKV
    Видео кодек: AVC
    Аудио кодек:AC3
    Видео: ~16000 kb/s ,1920*800, 59,880 кадров/сек
    Аудио 1 Русский: 5.1, 640 kb/s, 48,0 КГц
    Аудио 2 Английский: 5.1, 640 kb/s, 48,0 КГц


    Код:

    Общее
    Уникальный идентификатор : 200471833744517797219794508154756406920 (0x96D17883D302F48ABF0A6DB3FF141E88)
    Полное имя : F:\Гарри Поттер\Гарри Поттер 7 Дары смерти часть 1.mkv
    Формат : Matroska
    Версия формата : Version 4 / Version 2
    Размер файла : 17,6 Гбайт
    Продолжительность : 2 ч. 26 м.
    Общий поток : 17,3 Мбит/сек
    Дата кодирования : UTC 2014-03-23 05:57:35
    Программа кодирования : mkvmerge v6.8.0 ('Theme for Great Cities') 64bit built on Mar 2 2014 21:34:26
    Библиотека кодирования : libebml v1.3.0 + libmatroska v1.4.1

    Видео
    Идентификатор : 1
    Формат : AVC
    Формат/Информация : Advanced Video Codec
    Профиль формата : High@L4.1
    Параметр CABAC формата : Да
    Параметр ReFrames формата : 5 кадров
    Идентификатор кодека : V_MPEG4/ISO/AVC
    Продолжительность : 2 ч. 26 м.
    Битрейт : 16,0 Мбит/сек
    Ширина : 1920 пикселей
    Высота : 800 пикселей
    Соотношение сторон : 2,40:1
    Режим частоты кадров : Постоянный
    Частота кадров : 59,880 кадров/сек
    Частота кадров в оригинале : 59,940 кадров/сек
    Цветовое пространство : YUV
    Субдискретизация насыщенности : 4:2:0
    Битовая глубина : 8 бит
    Тип развёртки : Прогрессивная
    Бит/(Пиксели*Кадры) : 0.174
    Размер потока : 16,0 Гбайт (91%)
    Библиотека кодирования : x264 core 130 r2273 b3065e6
    Настройки программы : cabac=1 / ref=5 / deblock=1:-1:-1 / analyse=0x3:0 / me=umh / subme=9 / psy=1 / psy_rd=1.00:0.10 / mixed_ref=1 / me_range=24 / chroma_me=0 / trellis=1 / 8x8dct=1 / cqm=0 / deadzone=21,11 / fast_pskip=0 / chroma_qp_offset=-3 / threads=6 / lookahead_threads=1 / sliced_threads=0 / nr=0 / decimate=0 / interlaced=0 / bluray_compat=0 / constrained_intra=0 / bframes=5 / b_pyramid=2 / b_adapt=2 / b_bias=0 / direct=3 / weightb=1 / open_gop=0 / weightp=2 / keyint=250 / keyint_min=25 / scenecut=40 / intra_refresh=0 / rc=2pass / mbtree=0 / bitrate=16000 / ratetol=1.0 / qcomp=0.60 / qpmin=0 / qpmax=69 / qpstep=4 / cplxblur=20.0 / qblur=0.5 / ip_ratio=1.40 / pb_ratio=1.30 / aq=1:0.90
    Язык : English
    Default : Да
    Forced : Нет

    Аудио #1
    Идентификатор : 2
    Формат : AC-3
    Формат/Информация : Audio Coding 3
    Расширение режима : CM (complete main)
    Параметр Endianness формата : Big
    Идентификатор кодека : A_AC3
    Продолжительность : 2 ч. 26 м.
    Вид битрейта : Постоянный
    Битрейт : 640 Кбит/сек
    Каналы : 6 каналов
    Расположение каналов : Front: L C R, Side: L R, LFE
    Частота : 48,0 КГц
    Битовая глубина : 16 бит
    Метод сжатия : С потерями
    Размер потока : 669 Мбайт (4%)
    Заголовок : Dub
    Язык : Russian
    Default : Да
    Forced : Нет

    Аудио #2
    Идентификатор : 5
    Формат : AC-3
    Формат/Информация : Audio Coding 3
    Расширение режима : CM (complete main)
    Параметр Endianness формата : Big
    Идентификатор кодека : A_AC3
    Продолжительность : 2 ч. 26 м.
    Вид битрейта : Постоянный
    Битрейт : 640 Кбит/сек
    Каналы : 6 каналов
    Расположение каналов : Front: L C R, Side: L R, LFE
    Частота : 48,0 КГц
    Битовая глубина : 16 бит
    Метод сжатия : С потерями
    Размер потока : 669 Мбайт (4%)
    Заголовок : Original
    Язык : English
    Default : Нет
    Forced : Нет

    Текст #1
    Идентификатор : 3
    Формат : UTF-8
    Идентификатор кодека : S_TEXT/UTF8
    Идентификатор кодека/Информация : UTF-8 Plain Text
    Заголовок : Full
    Язык : Russian
    Default : Нет
    Forced : Нет

    Текст #2
    Идентификатор : 4
    Формат : UTF-8
    Идентификатор кодека : S_TEXT/UTF8
    Идентификатор кодека/Информация : UTF-8 Plain Text
    Заголовок : Full
    Язык : English
    Default : Нет
    Forced : Нет

    Текст #3
    Идентификатор : 6
    Формат : UTF-8
    Идентификатор кодека : S_TEXT/UTF8
    Идентификатор кодека/Информация : UTF-8 Plain Text
    Заголовок : Forced
    Язык : Russian
    Default : Да
    Forced : Да

    Меню
    00:00:00.000 : :00:00:00.000
    00:04:18.508 : :00:04:18.508
    00:09:46.628 : :00:09:46.628
    00:15:16.207 : :00:15:16.207
    00:19:13.569 : :00:19:13.569
    00:26:04.229 : :00:26:04.229
    00:31:37.771 : :00:31:37.771
    00:35:43.308 : :00:35:43.308
    00:41:37.537 : :00:41:37.537
    00:45:45.618 : :00:45:45.618
    00:50:14.094 : :00:50:14.094
    00:55:02.716 : :00:55:02.716
    00:58:31.174 : :00:58:31.174
    01:03:41.359 : :01:03:41.359
    01:10:02.198 : :01:10:02.198
    01:14:30.924 : :01:14:30.924
    01:18:48.849 : :01:18:48.849
    01:22:17.599 : :01:22:17.599
    01:24:55.090 : :01:24:55.090
    01:28:03.194 : :01:28:03.194
    01:32:34.173 : :01:32:34.173
    01:37:40.229 : :01:37:40.229
    01:42:37.568 : :01:42:37.568
    01:47:54.134 : :01:47:54.134
    01:53:48.112 : :01:53:48.112
    01:57:30.960 : :01:57:30.960
    02:01:27.989 : :02:01:27.989
    02:05:42.159 : :02:05:42.159
    02:09:42.733 : :02:09:42.733
    02:13:16.029 : :02:13:16.029
    02:14:47.120 : :02:14:47.120

    Скриншоты:

    Каталог Новинок (Фильмы-трейлеры, Игры, Сериалы, Мультфильмы)

    © Оформление by Raven
  • Гарри Поттер и Дары Смерти: Часть II / Harry Potter and the Deathly Hallows: Part 2
    «Все закончится»

    Год выпуска: 2011
    Страна: США, Великобритания
    Жанр:фэнтези, детектив, приключения
    Продолжительность:02:10:27
    Перевод:Дубляж
    Субтитры:Rus (полные), Eng (полные), Rus (форс.)
    Режиссер:Дэвид Йэтс

  • В ролях:

    Дэниэл Рэдклифф (Harry Potter), Руперт Гринт (Ron Weasley), Эмма Уотсон (Hermione Granger), Хелена Бонем Картер (Bellatrix Lestrange), Робби Колтрейн (Rubeus Hagrid), Уорвик Дэвис (Griphook / Professor Filius Flitwick), Рэйф Файнс (Lord Voldemort), Майкл Гэмбон (Professor Albus Dumbledore), Джон Хёрт (Ollivander), Джейсон Айзекс (Lucius Malfoy), Гари Олдман (Sirius Black), Алан Рикман (Professor Severus Snape)

  • Описание:
    В грандиозной последней главе битва между добрыми и злыми силами мира волшебников перерастает во всеобщую войну. Ставки ещё никогда не были так высоки, а поиск убежища - столь сложен. И быть может именно Гарри Поттеру придется пожертвовать всем в финальном сражении с Волан-де-Мортом. Способен ли наш герой спасти мир? И всё закончится здесь.

  • Мировая премьера:7 июля 2011


    Качество: BDRip 1080p
    Формат:MKV
    Видео кодек: AVC
    Аудио кодек:AC3
    Видео: ~16000 kb/s ,1920*800, 59,880 кадров/сек
    Аудио 1 Русский: 5.1, 640 kb/s, 48,0 КГц
    Аудио 2 Английский: 5.1, 640 kb/s, 48,0 КГц


    Код:

    Общее
    Уникальный идентификатор : 239008245912541050505880398606078694337 (0xB3CF50539D18610FA0401B7FCC95D3C1)
    Полное имя : F:\Гарри Поттер\Гарри Поттер 8 Дары смерти часть 2.mkv
    Формат : Matroska
    Версия формата : Version 4 / Version 2
    Размер файла : 15,7 Гбайт
    Продолжительность : 2 ч. 10 м.
    Общий поток : 17,3 Мбит/сек
    Дата кодирования : UTC 2014-03-26 14:27:37
    Программа кодирования : mkvmerge v6.8.0 ('Theme for Great Cities') 64bit built on Mar 2 2014 21:34:26
    Библиотека кодирования : libebml v1.3.0 + libmatroska v1.4.1

    Видео
    Идентификатор : 1
    Формат : AVC
    Формат/Информация : Advanced Video Codec
    Профиль формата : High@L4.1
    Параметр CABAC формата : Да
    Параметр ReFrames формата : 5 кадров
    Идентификатор кодека : V_MPEG4/ISO/AVC
    Продолжительность : 2 ч. 10 м.
    Битрейт : 16,0 Мбит/сек
    Ширина : 1920 пикселей
    Высота : 800 пикселей
    Соотношение сторон : 2,40:1
    Режим частоты кадров : Постоянный
    Частота кадров : 59,880 кадров/сек
    Частота кадров в оригинале : 59,940 кадров/сек
    Цветовое пространство : YUV
    Субдискретизация насыщенности : 4:2:0
    Битовая глубина : 8 бит
    Тип развёртки : Прогрессивная
    Бит/(Пиксели*Кадры) : 0.174
    Размер потока : 14,3 Гбайт (91%)
    Библиотека кодирования : x264 core 130 r2273 b3065e6
    Настройки программы : cabac=1 / ref=5 / deblock=1:-1:-1 / analyse=0x3:0 / me=umh / subme=9 / psy=1 / psy_rd=1.00:0.10 / mixed_ref=1 / me_range=24 / chroma_me=0 / trellis=1 / 8x8dct=1 / cqm=0 / deadzone=21,11 / fast_pskip=0 / chroma_qp_offset=-3 / threads=6 / lookahead_threads=1 / sliced_threads=0 / nr=0 / decimate=0 / interlaced=0 / bluray_compat=0 / constrained_intra=0 / bframes=5 / b_pyramid=2 / b_adapt=2 / b_bias=0 / direct=3 / weightb=1 / open_gop=0 / weightp=2 / keyint=250 / keyint_min=25 / scenecut=40 / intra_refresh=0 / rc=2pass / mbtree=0 / bitrate=16000 / ratetol=1.0 / qcomp=0.60 / qpmin=0 / qpmax=69 / qpstep=4 / cplxblur=20.0 / qblur=0.5 / ip_ratio=1.40 / pb_ratio=1.30 / aq=1:0.90
    Язык : English
    Default : Да
    Forced : Нет

    Аудио #1
    Идентификатор : 4
    Формат : AC-3
    Формат/Информация : Audio Coding 3
    Расширение режима : CM (complete main)
    Параметр Endianness формата : Big
    Идентификатор кодека : A_AC3
    Продолжительность : 2 ч. 10 м.
    Вид битрейта : Постоянный
    Битрейт : 640 Кбит/сек
    Каналы : 6 каналов
    Расположение каналов : Front: L C R, Side: L R, LFE
    Частота : 48,0 КГц
    Битовая глубина : 16 бит
    Метод сжатия : С потерями
    Размер потока : 597 Мбайт (4%)
    Заголовок : Dub
    Язык : Russian
    Default : Да
    Forced : Да

    Аудио #2
    Идентификатор : 6
    Формат : AC-3
    Формат/Информация : Audio Coding 3
    Расширение режима : CM (complete main)
    Параметр Endianness формата : Big
    Идентификатор кодека : A_AC3
    Продолжительность : 2 ч. 10 м.
    Вид битрейта : Постоянный
    Битрейт : 640 Кбит/сек
    Каналы : 6 каналов
    Расположение каналов : Front: L C R, Side: L R, LFE
    Частота : 48,0 КГц
    Битовая глубина : 16 бит
    Метод сжатия : С потерями
    Размер потока : 597 Мбайт (4%)
    Заголовок : Original
    Язык : English
    Default : Нет
    Forced : Нет

    Текст #1
    Идентификатор : 2
    Формат : UTF-8
    Идентификатор кодека : S_TEXT/UTF8
    Идентификатор кодека/Информация : UTF-8 Plain Text
    Заголовок : Full
    Язык : Russian
    Default : Нет
    Forced : Нет

    Текст #2
    Идентификатор : 3
    Формат : UTF-8
    Идентификатор кодека : S_TEXT/UTF8
    Идентификатор кодека/Информация : UTF-8 Plain Text
    Заголовок : Full
    Язык : English
    Default : Нет
    Forced : Нет

    Текст #3
    Идентификатор : 5
    Формат : UTF-8
    Идентификатор кодека : S_TEXT/UTF8
    Идентификатор кодека/Информация : UTF-8 Plain Text
    Заголовок : Forced
    Язык : Russian
    Default : Да
    Forced : Нет

    Меню
    00:00:00.000 : en:Chapter 1
    00:02:58.220 : en:Chapter 2
    00:06:21.172 : en:Chapter 3
    00:10:21.871 : en:Chapter 4
    00:14:27.992 : en:Chapter 5
    00:20:05.621 : en:Chapter 6
    00:22:47.783 : en:Chapter 7
    00:25:38.620 : en:Chapter 8
    00:30:46.803 : en:Chapter 9
    00:34:33.655 : en:Chapter 10
    00:40:32.263 : en:Chapter 11
    00:45:52.249 : en:Chapter 12
    00:50:15.471 : en:Chapter 13
    00:54:41.027 : en:Chapter 14
    00:59:01.246 : en:Chapter 15
    01:03:42.068 : en:Chapter 16
    01:07:06.063 : en:Chapter 17
    01:11:24.488 : en:Chapter 18
    01:14:38.932 : en:Chapter 19
    01:23:40.849 : en:Chapter 20
    01:29:17.727 : en:Chapter 21
    01:31:25.021 : en:Chapter 22
    01:36:37.666 : en:Chapter 23
    01:41:09.104 : en:Chapter 24
    01:46:42.312 : en:Chapter 25
    01:50:18.361 : en:Chapter 26
    01:54:16.683 : en:Chapter 27
    01:58:12.877 : en:Chapter 28

    Скриншоты:

    Каталог Новинок (Фильмы-трейлеры, Игры, Сериалы, Мультфильмы)

    © Оформление by Raven
  • Просьба раздающим на других сайтах "Подписывайте пожалуйста автора рипа Tiberiumsun69"pb.wtf



    Скачать Гарри Поттер через торрент https://pic.kartinco.top/new/img/2014-05/12/62jltsxov1d1y9crv39ptm0o3.png Скачать, смотреть онлайн Гарри Поттер бесплантно в хорошем качестве Описание:Жизнь десятилетнего Гарри Поттера нельзя назвать сладкой: его родители умерли, едва ему исполнился год, а от дяди и тётки, взявших ... 9.8 10 74
    Info! Золотая раздача, скачанное не засчитывается.
    Торрент: Зарегистрирован [2014-08-11 18:55] · скачан: 1 194 раз
    Статус: √ проверено
    Размер: 142.01 GB
    Как cкачать? Как скачать Гарри Поттер через торрент | UTorrent

    % Раздел Тема Автор DL S | L
    Фильмы (HD 720p, 1080p) (48-60 fps) [ 8.05 GB ] Гарри Поттер и философский камень / Harry Potter and the Sorcerer's Stone [2001 BDRip 720p 60fps от еnvy / NNNB] DUB еnvy Скачать
    2 | 0
    Сборники и Сиквелы (48-60 fps) [ 31.63 GB ] Гарри Поттер : Антология / Harry Potter : Antology [2001-2011 BDRip-AVC 60fps ] от R.G. HD-Films Tiberiumsun69 Скачать
    5 | 0


    Последний раз редактировалось: Ворон (2014-08-12 02:41), всего редактировалось 6 раз(а)

    28-11-2019 20:33  

    Отключить всю рекламу на сайте

    11-08-2014 19:00 Гарри Поттер Скачать торрент  

    Круто,140 gb,кому-то в коллекцию pb.wtf



    11-08-2014 19:21 Гарри Поттер Скачать торрент  

    Чееертт!!!! Я только месяц назад пересмотрел все фильмы про Поттера и тут 60 фпс =((( Теперь хочу в 60 фпс, но уже больно хорошо все детали помню))pb.wtf



    11-08-2014 19:48 Гарри Поттер Скачать торрент  

    Хз качать нет, качество так и манит...pb.wtf



    15-08-2014 08:06 Гарри Поттер Скачать торрент  

    А есть ли возможность сделать 720р с 60 кадрами?
    Телевизор не тянет 1080р с 60 кадрами, увы... :(((pb.wtf



    25-12-2014 02:51 Гарри Поттер Скачать торрент  

    Здравствуйте! Спасибо за сборник! Можно добавить сэмплы?pb.wtf



    28-12-2014 13:50 Гарри Поттер Скачать торрент  

    спасибо за труды!pb.wtf



    04-05-2015 08:36 Гарри Поттер Скачать торрент  

    Спасибо за сборничек, но скорости нету, может кто подсобить?pb.wtf



    22-06-2015 13:17 Гарри Поттер Скачать торрент  

    спасибо давно хотел пересмотреть в 60 фпс данную франшизуpb.wtf



    07-11-2017 20:13 Гарри Поттер Скачать торрент  

    Дайте скорости плизззpb.wtf



    07-02-2018 07:31 Гарри Поттер Скачать торрент  

    Авторская группа в ВК
    pb.wtf



      Дорогой пользователь! Огромная просьба, поблагодарите релизера, оцените раздачу и оставьте свои комментарий, если Вы скачали Гарри Поттер через торрент бесплатно!
      Комментировать посты могут только пользователи прошедшие не сложную регистрацию
      Показать сообщения:    

      Гарри Поттер через торрент
      Скачать бесплатно Гарри Поттер
      Гарри Поттер скачать торрент
      Гарри Поттер смотреть онлайн
      Cкачать фильм Гарри Поттер бесплатно
      Гарри Поттер скачать торрент в хорошем качестве
      Гарри Поттер смотреть онлайн бесплатно в хорошем качестве


      Вы не можете начинать темы
      Вы не можете отвечать на сообщения
      Вы не можете редактировать свои сообщения
      Вы не можете удалять свои сообщения
      Вы не можете голосовать в опросах
      Вы не можете прикреплять файлы к сообщениям
      Вы можете скачивать файлы