Ссылка на приватное зеркало нашего сайта всего за 1$. Внимание количество ограничено!!!

2 сезон

iTunes

1 сезон

1

2 сезон

2 сезон

iTunes

1 сезон

RePack

30

Ultimate

ВАЖНО

ИГРА 18+

pack

RePack

MK11
pack

Забери бонус

RePack

jed

!!Акция!!

Alien_Rage

RePack

fifa19

RePack

Assassins Creed: Odyssey

RePack

NEED FOR SPEED™ PAYBACK

4 сезон

9 сезон

Бесстыжие 9 сезон

Все сериалы

все сериалы на PB.wtf

RePack

FAR CRY 5
  

Жестокие игры 2: Манчестерская подготовка / Cruel Intentions 2 (Роджер Камбл / Roger Kumble) [2000, США, драма, комедия, DVDRip,Профессиональный (двухголосый)] pb.wtf

Жестокие игры 2: Манчестерская подготовка через торрент pb.wtf

Размер: 658 MB | Добавлен: 6 лет 3 мес. назад | Торрент скачан:125 раз
Скачать  

11-08-2014 18:17 Жестокие игры 2: Манчестерская подготовка Скачать торрент  

Жестокие игры 2: Манчестерская подготовка / Cruel Intentions 2

Год выпуска: 2000
Страна: США
Жанр: драма, комедия

Продолжительность: 01:23:15
Перевод: Профессиональный (двухголосый)
Субтитры: Нет
Режиссер: Роджер Камбл / Roger Kumble
В ролях: Робин Данн (Sebastian Valmont), Сара Томпсон (Danielle Sherman), Кери Линн Прэтт (Cherie Claymon), Эми Адамс (Kathryn Merteuil), Бэрри Флэтмэн (Headmaster Sherman), Мими Роджерс (Tiffany Merteuil), Тереза Хилл (Lilly), Барклай Хоуп (Mr. Felder), Тейн МакКлюр (Bunny Claymon), Дэвид Макилрайт (Edward Valmont), Джонатан Поттс (Assistant Headmaster Steve Muller), Кэйли Уилсон (Blaine Tuttle)
Описание:
Себастьен Вальмон, сделавший все для того, чтобы его выгнали из школы, переезжает в Нью-Йорк к своему отцу, женившемуся в четвертый раз. Он хочет начать новую жизнь приличного человека. У новой мачехи есть дочь Кэтрин, прилагающая все усилия для того, чтобы стать похожей на стерву-мать. Кэтрин сразу невзлюбила сводного братика, превосходящего ее во всем.
Себастьен влюбляется в Даниель, дочь директора его новой школы. Она отличается от других девушек серьезностью и целеустремленностью, учится и подрабатывает в книжном магазине. Кэтрин намерена превратить Шери, девственницу-идиотку из безумно богатой семьи, в последнюю шлюху. Школа, в которой учатся Себастьен и Кэтрин - для детей богатых родителей. И Кэтрин возглавляет это сборище снобов. Но ей не очень-то и нравится выбранная стезя - стать такой же как мать. Чем разрешится конфликт Себастьена с Кэтрин? И что будет дальше между ним и Даниель?
Рейтинг

imdb.com: 4.30 (10 880)
MPAA: R
- Лицам до 17 лет обязательно присутствие взрослого
Качество: DVDRip
Формат: AVI
Видео кодек: DivX 3 Low
Аудио кодек:MP3
Видео: DivX 3 Low, 512x272 (1.882), 934 kbps, 25,062 fps, 0,268 bpp
Аудио: MP3 / 2.0 / 44 kHz / 160 kbps /


Сэмпл
General
Complete name : F:\Релиз\zhestokie.igry.2.avi
Format : AVI
Format/Info : Audio Video Interleave
File size : 658 MiB
Duration : 1h 23mn
Overall bit rate : 1 105 Kbps
Writing library : VirtualDub build 11759/release

Video
ID : 0
Format : MPEG-4 Visual
Codec ID : DIV3
Codec ID/Hint : DivX 3 Low
Duration : 1h 23mn
Bit rate : 935 Kbps
Width : 512 pixels
Height : 272 pixels
Display aspect ratio : 1.882
Frame rate : 25.062 fps
Color space : YUV
Chroma subsampling : 4:2:0
Bit depth : 8 bits
Compression mode : Lossy
Bits/(Pixel*Frame) : 0.268
Stream size : 557 MiB (85%)

Audio
ID : 1
Format : MPEG Audio
Format version : Version 1
Format profile : Layer 3
Mode : Joint stereo
Mode extension : MS Stereo
Codec ID : 55
Codec ID/Hint : MP3
Duration : 1h 23mn
Bit rate mode : Constant
Bit rate : 160 Kbps
Channel(s) : 2 channels
Sampling rate : 44.1 KHz
Compression mode : Lossy
Delay relative to video : 2s 940ms
Stream size : 95.3 MiB (14%)
Alignment : Split accross interleaves
Interleave, duration : 40 ms (1.00 video frame)
Interleave, preload duration : 500 ms
pb.wtf



Скачать Жестокие игры 2: Манчестерская подготовка через торрент http://i4.imageban.ru/out/2014/08/11/0c749376640fd036cb0ebfc41d7d0396.jpg Скачать фильм Жестокие игры 2: Манчестерская подготовка через торрент бесплантно в хорошем качестве Описание: Себастьен Вальмон, сделавший все для того, чтобы его выгнали из школы, переезжает в Нью-Йорк к своему отцу, женившемуся в ... 10 10 4
Торрент: Зарегистрирован [2014-08-11 18:17] · скачан: 125 раз
Статус: √ проверено
Размер: 658 MB
Как cкачать? Как скачать Жестокие игры 2: Манчестерская подготовка через торрент | qTorrent

28-11-2019 20:33  

Отключить всю рекламу на сайте

    Дорогой пользователь! Огромная просьба, поблагодарите релизера, оцените раздачу и оставьте свои комментарий, если Вы скачали Жестокие игры 2: Манчестерская подготовка через торрент бесплатно! Внесите свою лепту в развитие PiratBit!
    Комментировать посты могут только пользователи прошедшие не сложную регистрацию
    Показать сообщения:    

    Жестокие игры 2: Манчестерская подготовка через торрент
    Скачать бесплатно Жестокие игры 2: Манчестерская подготовка
    Жестокие игры 2: Манчестерская подготовка скачать торрент
    Жестокие игры 2: Манчестерская подготовка смотреть онлайн
    Cкачать фильм Жестокие игры 2: Манчестерская подготовка бесплатно
    Жестокие игры 2: Манчестерская подготовка скачать торрент в хорошем качестве
    Жестокие игры 2: Манчестерская подготовка смотреть онлайн бесплатно в хорошем качестве


    Вы не можете начинать темы
    Вы не можете отвечать на сообщения
    Вы не можете редактировать свои сообщения
    Вы не можете удалять свои сообщения
    Вы не можете голосовать в опросах
    Вы не можете прикреплять файлы к сообщениям
    Вы можете скачивать файлы