2 сезон

iTunes

1 сезон

1

iTunes

iTunes

iTunes

1 сезон

RePack

30

ИГРА 18+

pack

ВАЖНО

!!Акция!!

Alien_RageХит недели

RePack

MK11
pack

Забери бонус

RePack

jed

!!Акция!!

Alien_Rage

RePack

fifa19

RePack

Assassins Creed: Odyssey

RePack

NEED FOR SPEED™ PAYBACK

4 сезон

9 сезон

Бесстыжие 9 сезон

Все сериалы

все сериалы на PB.wtf

RePack

FAR CRY 5
  

Перед дверью дьявола / Дом / At the Devil's Door / Home (Николас МакКарти / Nicholas McCarthy) [2014, США, ужасы, WEB-DLRip, Любительский (одноголосый) [Xixidok] pb.wtf

Перед дверью дьявола через торрент pb.wtf

Размер: 1.36 GB | Добавлен: 6 лет 2 мес. назад | Торрент скачан:347 раз
Скачать  

12-08-2014 04:54 Перед дверью дьявола Скачать торрент  

Перед дверью дьявола / Дом / At the Devil's Door / Home


  • Год выпуска: 2014
  • Страна: США
  • Жанр: ужасы
  • Продолжительность: 01:33:02
  • Перевод: Любительский (одноголосый) [Xixidok]

  • Режиссер: Николас МакКарти / Nicholas McCarthy
  • В ролях:

    Ная Ривера (Vera), Ава Акрес (Girl), Эршад Аслам (Seth), Роб Браунштейн (Dr. Daninsky), Тара Бак (Yolanda), Лаура Кай Чен (Dr. Kim), Ассаф Коэн (Dr. Aranda), Ник Эверсман (Calvin), Кент Фалкон (Davis), Каталина Сандино Морено (Leigh), Шон О’Хаган (Detective), Эшли Рикардс (Girl)

  • Описание:
    Молодая девушка расследует череду странных происшествий в доме. Оказывается, предыдущий арендатор совершенно случайно вызвал дьявола...
  • Рейтинг:



  • Качество: WEB-DLRip
  • Формат: :AVI
  • Видео кодек: XviD
  • Аудио кодек: MP3
  • Видео: 720x304 (2.35:1), 1887 kbps, 23,976 fps, 0,360 bpp
  • Аудио: 2.0 / 44 kHz / 192 kbps
  • Релиз от: GEKADOL

    Код:

    General
    Complete name                            : D:\Фильмы\At.the.Devils.Door.2014.L1.WEBDLRip.1400Mb.avi
    Format                                   : AVI
    Format/Info                              : Audio Video Interleave
    File size                                : 1.36 GiB
    Duration                                 : 1h 33mn
    Overall bit rate                         : 2 089 Kbps
    Writing application                      : VirtualDubMod 1.5.10.3 | www.virtualdub-fr.org || (build 2550/release)
    Writing library                          : VirtualDubMod build 2550/release

    Video
    ID                                       : 0
    Format                                   : MPEG-4 Visual
    Format profile                           : Advanced Simple@L5
    Format settings, BVOP                    : 1
    Format settings, QPel                    : No
    Format settings, GMC                     : No warppoints
    Format settings, Matrix                  : Custom
    Codec ID                                 : XVID
    Codec ID/Hint                            : XviD
    Duration                                 : 1h 33mn
    Bit rate                                 : 1 888 Kbps
    Width                                    : 720 pixels
    Height                                   : 304 pixels
    Display aspect ratio                     : 2.35:1
    Frame rate                               : 23.976 fps
    Color space                              : YUV
    Chroma subsampling                       : 4:2:0
    Bit depth                                : 8 bits
    Scan type                                : Progressive
    Compression mode                         : Lossy
    Bits/(Pixel*Frame)                       : 0.360
    Stream size                              : 1.23 GiB (90%)
    Writing library                          : XviD 1.2.1 (UTC 2008-12-04)

    Audio
    ID                                       : 1
    Format                                   : MPEG Audio
    Format version                           : Version 1
    Format profile                           : Layer 3
    Codec ID                                 : 55
    Codec ID/Hint                            : MP3
    Duration                                 : 1h 33mn
    Bit rate mode                            : Constant
    Bit rate                                 : 192 Kbps
    Channel(s)                               : 2 channels
    Sampling rate                            : 44.1 KHz
    Compression mode                         : Lossy
    Stream size                              : 128 MiB (9%)
    Alignment                                : Split accross interleaves
    Interleave, duration                     : 42 ms (1.00 video frame)
    Interleave, preload duration             : 500 ms


    Скриншоты:


    pb.wtf



  • Скачать Перед дверью дьявола через торрент http://i68.fastpic.ru/big/2014/0812/42/dc9bfacffc0306f73dbdf14a12262f42.jpg Скачать фильм Перед дверью дьявола через торрент бесплантно в хорошем качестве Описание: Молодая девушка расследует череду странных происшествий в доме. Оказывается, предыдущий арендатор совершенно случайно вызвал ... 9.4 10 9
    Торрент: Зарегистрирован [2014-08-12 04:54] · скачан: 347 раз
    Статус: √ проверено
    Размер: 1.36 GB
    Как cкачать? Как скачать Перед дверью дьявола через торрент | qTorrent

    28-11-2019 20:33  

    Отключить всю рекламу на сайте

      Дорогой пользователь! Огромная просьба, поблагодарите релизера, оцените раздачу и оставьте свои комментарий, если Вы скачали Перед дверью дьявола через торрент бесплатно! Внесите свою лепту в развитие PiratBit!
      Комментировать посты могут только пользователи прошедшие не сложную регистрацию
      Показать сообщения:    

      Перед дверью дьявола через торрент
      Скачать бесплатно Перед дверью дьявола
      Перед дверью дьявола скачать торрент
      Перед дверью дьявола смотреть онлайн
      Cкачать фильм Перед дверью дьявола бесплатно
      Перед дверью дьявола скачать торрент в хорошем качестве
      Перед дверью дьявола смотреть онлайн бесплатно в хорошем качестве


      Вы не можете начинать темы
      Вы не можете отвечать на сообщения
      Вы не можете редактировать свои сообщения
      Вы не можете удалять свои сообщения
      Вы не можете голосовать в опросах
      Вы не можете прикреплять файлы к сообщениям
      Вы можете скачивать файлы