Ссылка на приватное зеркало нашего сайта всего за 1$. Внимание количество ограничено!!!

2 сезон

iTunes

1 сезон

1

iTunes

iTunes

iTunes

1 сезон

RePack

30

ИГРА 18+

pack

ВАЖНО

!!Акция!!

Alien_RageХит недели

RePack

MK11
pack

Забери бонус

RePack

jed

!!Акция!!

Alien_Rage

RePack

fifa19

RePack

Assassins Creed: Odyssey

RePack

NEED FOR SPEED™ PAYBACK

4 сезон

9 сезон

Бесстыжие 9 сезон

Все сериалы

все сериалы на PB.wtf

RePack

FAR CRY 5
  

Иуда (Андрей Богатырев) [2013 г., драма, WEB-DLRip] [iTunes] pb.wtf

Иуда через торрент pb.wtf

Размер: 1.46 GB | Добавлен: 6 лет 2 мес. назад | Торрент скачан:2590 раз
Скачать  

12-08-2014 06:05 Иуда Скачать торрент  

Иуда

Год выпуска: 2013
Страна: Россия
Выпущено: ABS Film Company, Rossfilm
Жанр: драма
Продолжительность: 01:47:36
Озвучивание: Oригинальное [iTunes]

Режиссер: Андрей Богатырев
Продюссер: Татьяна Воронецкая, Елена Белова, Мария Эль
Сценарий: Всеволод Бенигсен, Леонид Андреев
Премьера в мире: 20 марта 2014

IMDB 7.80 (12)


В ролях: Алексей Шевченков, Сергей Фролов, Андрей Барило, Иван Добронравов, Ольга Сташкевич, Алексей Боченин, Вадим Яковлев, Ольга Аксёнова, Максим Дугишов, Андрей Богатырев

Описание: Тайный смысл одного из самых известных библейских предательств не могут разгадать вот уже 2000 лет. Фильм-провокация Андрея Богатырёва «Иуда» по нашумевшей повести Леонида Андреева — это обратная сторона истории Иуды Искариота, апостола-изгоя, и поиск ответа на вопрос: почему на самом деле Иуда предал Христа?

Качество: WEB-DLRip
Формат: AVI
Видео кодек: XviD
Аудио кодек: AC3
Видео: XviD, 1740 Кбит/с, 720x304, 25.000 fps
Аудио: AC3, 192 kb/s, 2 ch, 48.0 KHz
General
Complete name : /home/sb753/files/Iuda.2013.O.WEBDLRip.avi
Format : AVI
Format/Info : Audio Video Interleave
File size : 1.46 GiB
Duration : 1h 47mn
Overall bit rate : 1 942 Kbps
Writing application : VirtualDubMod 1.5.10.3 | www.virtualdub-fr.org || (build 2550/release)
Writing library : VirtualDubMod build 2550/release

Video
ID : 0
Format : MPEG-4 Visual
Format profile : Advanced Simple@L5
Format settings, BVOP : 2
Format settings, QPel : No
Format settings, GMC : No warppoints
Format settings, Matrix : Default (MPEG)
Codec ID : XVID
Codec ID/Hint : XviD
Duration : 1h 47mn
Bit rate : 1 740 Kbps
Width : 720 pixels
Height : 304 pixels
Display aspect ratio : 2.35:1
Frame rate : 25.000 fps
Color space : YUV
Chroma subsampling : 4:2:0
Bit depth : 8 bits
Scan type : Progressive
Compression mode : Lossy
Bits/(Pixel*Frame) : 0.318
Stream size : 1.31 GiB (90%)
Writing library : XviD 1.2.1 (UTC 2008-12-04)

Audio
ID : 1
Format : AC-3
Format/Info : Audio Coding 3
Mode extension : CM (complete main)
Format settings, Endianness : Big
Codec ID : 2000
Duration : 1h 47mn
Bit rate mode : Constant
Bit rate : 192 Kbps
Channel(s) : 2 channels
Channel positions : Front: L R
Sampling rate : 48.0 KHz
Bit depth : 16 bits
Compression mode : Lossy
Stream size : 148 MiB (10%)
Alignment : Split accross interleaves
Interleave, duration : 40 ms (1.00 video frame)
Interleave, preload duration : 500 ms
pb.wtf



Скачать Иуда через торрент http://i66.fastpic.ru/big/2014/0812/48/b1baf5ee5c3776c94d6e293be8f37248.png Скачать фильм Иуда через торрент бесплантно в хорошем качестве Описание: Тайный смысл одного из самых известных библейских предательств не могут разгадать вот уже 2000 лет. Фильм-провокация Андрея ... 9.4 10 51
Info! Серебряная раздача, засчитывается только 50% скачанного.
Торрент: Зарегистрирован [2014-08-12 06:05] · скачан: 2 590 раз
Статус: √ проверено
Размер: 1.46 GB
Как cкачать? Как скачать Иуда через торрент | qTorrent

% Раздел Тема Автор DL S | L
Фильмы без перевода [ 1.39 GB ] История Иуды / Histoire de Judas [2015 DVDRip Субтитры] Anonymous Скачать
1 | 0
Историческая книга [ 367 MB ] Леонид Андреев - *Иуда Искариот* [Евгений Князев 2015 256 kbps MP3] Бумер Скачать
1 | 0
Сцены из фильмов и Сайтрипы с русскими актрисами [ 344 MB ] Латойя / Latoya [2014 Anal Uniform Outdoors Sex Deep Throat Doggystyle Cowgirl SATRip] Pir@tya2010 Скачать
1 | 0
Наши фильмы (DVD фильмы) [ 4.11 GB ] Иуда [2014 DVD5] R5 voovaz Скачать
1 | 0
Сцены из фильмов и Сайтрипы с русскими актрисами [ 373 MB ] Горячая Непослушная Ева приударила за массажистом / Eva .[18XGirls] [2013 Teen Hardcore. SATRip] Pir@tya2010 Скачать
1 | 0
T Фильмы 2011 [ 805 MB ] Поцелуй Иуды / Judas Kiss [2011 DVDRip] makarevich Скачать
1 | 0
Иностранные мультфильмы [ 174 MB ] Иуда и Иисус / Judas and Jesus [2009 анимация DVDRip] sniper224 Скачать
1 | 0

28-11-2019 20:33  

Отключить всю рекламу на сайте

12-08-2014 15:14 Иуда Скачать торрент  

Спасибо за релиз!!pb.wtf



13-08-2014 16:16 Иуда Скачать торрент  

смотреть смысл есть?pb.wtf



31-08-2014 15:46 Иуда Скачать торрент  

да смотреть нужно внимательно и лучше одному или в тишинеpb.wtf



09-10-2014 19:03 Иуда Скачать торрент  

Спасибо, посмотрюpb.wtf



09-11-2014 14:41 Иуда Скачать торрент  

Скучный и нудный фильм.Не атмосферный,всё время не покидала мысль,что это наши актёры лицедействуют на библейскую тему.pb.wtf



    Дорогой пользователь! Огромная просьба, поблагодарите релизера, оцените раздачу и оставьте свои комментарий, если Вы скачали Иуда через торрент бесплатно! Внесите свою лепту в развитие PiratBit!
    Комментировать посты могут только пользователи прошедшие не сложную регистрацию
    Показать сообщения:    

    Иуда через торрент
    Скачать бесплатно Иуда
    Иуда скачать торрент
    Иуда смотреть онлайн
    Cкачать фильм Иуда бесплатно
    Иуда скачать торрент в хорошем качестве
    Иуда смотреть онлайн бесплатно в хорошем качестве


    Вы не можете начинать темы
    Вы не можете отвечать на сообщения
    Вы не можете редактировать свои сообщения
    Вы не можете удалять свои сообщения
    Вы не можете голосовать в опросах
    Вы не можете прикреплять файлы к сообщениям
    Вы можете скачивать файлы