1 сезон

1 сезон

iTunes

1

КиноПоиск HD

Кинопоиск HD

iTunes

13

1 сезон

RePack

30

Новинка

ВАЖНО

ИГРА 18+

pack

RePack

MK11
pack

Легкие деньги

RePack

jed

RePack

fifa19

RePack

RDR2

RePack

NEED FOR SPEED™ PAYBACK

4 сезон

9 сезон

Бесстыжие 9 сезон

Все сериалы

все сериалы на PB.wtf

RePack

FAR CRY 5
  
Magnet ссылка

Призрачный мир / Ghost World (Терри Цвигофф / Terry Zwigoff) [2001, США, Великобритания, Германия, драма, комедия, BDRip] DVO+(ENG)+AVO pb.wtf

Призрачный мир через торрент pb.wtf

Размер: 2.53 GB | Добавлен: 6 лет 8 мес. назад | Торрент скачан:76 раз
Скачать  

12-08-2014 08:22 Призрачный мир Скачать торрент  

Призрачный мир / Ghost World
«Школа окончена, их ждет расплата!»


  • Год выпуска: 2001
  • Страна: США, Великобритания, Германия
  • Жанр: драма, комедия
  • Продолжительность: 01:51:25
  • Перевод: Профессиональный (двухголосый, закадровый)
  • Субтитры: Русские, Английские (внешние srt*)
  • Режиссер: Терри Цвигофф / Terry Zwigoff
  • В ролях:

    Тора Бёрч (Enid), Скарлетт Йоханссон (Rebecca), Стив Бушеми (Seymour), Брэд Ренфро (Josh), Иллиана Даглас (Roberta Allsworth), Боб Бэлабан (Enid's Dad), Стэйси Трэвис (Dana), Чарльз С. Стивенсон мл. (Norman), Дейв Шеридан (Doug), Том МакГоуэн (Joe), Дебра Азар (Melora), Брайан Джордж (Sidewinder Boss)

  • Описание:
    В то время, как все благовоспитанные выпускники средней школы отправились в колледж, наши героини Энид и Ребекка решили, что учиться дальше - это скука смертная и бесполезная трата времени. Гораздо лучше отдохнуть в свое удовольствие; поглядеть, что к чему; ну и, конечно, как следует «перемыть косточки» всем несовершенным представителям рода человеческого. А их, к счастью, повсюду превеликое множество!
    Но вот однажды, «пулестойкое» сердце нашей язвительной и саркастичной Энид дрогнуло. Это произошло после встречи со скромным и нерешительным холостяком-неудачником, торгующим старыми виниловыми пластинками. Девушку начинает необъяснимым образом тянуть к этому одинокому и застенчивому человеку...
  • Рейтинг:



  • Качество: BDRip
  • Формат: :AVI
  • Видео кодек: XviD
  • Аудио кодек: AC3
  • Видео: 1891 Кбит/сек, 704*384 (1,85:1), в 23,976 кадра/сек, MPEG-4 Visual (XviD)
  • Аудио №1: 448 Кбит/сек, 48,0 КГц, 16 бит, 6 каналов, AC-3 Профессиональный (двухголосый, закадровый) R5
  • Аудио №2: 448 Кбит/сек, 48,0 КГц, 16 бит, 6 каналов, AC-3 Английский
  • Аудио №3: 448 Кбит/сек, 48,0 КГц, 16 бит, 6 каналов, AC-3 Авторский одноголосый С.Визгунов (отдельно)
  • Релиз от: GEKADOL

    Код:

    Общее
    Полное имя                               : D:\Фильмы\Prizrachnyj.mir.2001.DUAL.BDRip.XviD.AC3.-HQCLUB\Prizrachnyj.mir.2001.DUAL.BDRip.XviD.AC3.-HQCLUB.avi
    Формат                                   : AVI
    Формат/Информация                        : Audio Video Interleave
    Профиль формата                          : OpenDML
    Размер файла                             : 2,18 Гбайт
    Продолжительность                        : 1 ч. 51 м.
    Общий поток                              : 2805 Кбит/сек
    Название фильма                          : Призрачный мир / Мир призраков / Ghost World (2001) BDRip
    Режиссёр                                 : yaroslaigor
    Жанр                                     : драма, комедия
    Программа кодирования                    : VirtualDubMod 1.5.10.2 (build 2542/release)
    Правообладатель                          : http://hqclub.net/
    Примечание                               : 12.06.2014

    Видео
    Идентификатор                            : 0
    Формат                                   : MPEG-4 Visual
    Профиль формата                          : Advanced Simple@L5
    Параметр BVOP формата                    : 1
    Параметр QPel формата                    : Нет
    Параметр GMC формата                     : Без точки перехода
    Параметр матрицы формата                 : Выборочная
    Идентификатор кодека                     : XVID
    Идентификатор кодека/Подсказка           : XviD
    Продолжительность                        : 1 ч. 51 м.
    Битрейт                                  : 1891 Кбит/сек
    Ширина                                   : 704 пикселя
    Высота                                   : 384 пикселя
    Соотношение сторон                       : 1,85:1
    Частота кадров                           : 23,976 кадра/сек
    Цветовое пространство                    : YUV
    Субдискретизация насыщенности            : 4:2:0
    Битовая глубина                          : 8 бит
    Тип развёртки                            : Прогрессивная
    Метод сжатия                             : С потерями
    Бит/(Пиксели*Кадры)                      : 0.292
    Размер потока                            : 1,47 Гбайт (67%)
    Библиотека кодирования                   : XviD 65

    Аудио #1
    Идентификатор                            : 1
    Формат                                   : AC-3
    Формат/Информация                        : Audio Coding 3
    Расширение режима                        : CM (complete main)
    Параметр Endianness формата              : Big
    Идентификатор кодека                     : 2000
    Продолжительность                        : 1 ч. 51 м.
    Вид битрейта                             : Постоянный
    Битрейт                                  : 448 Кбит/сек
    Каналы                                   : 6 каналов
    Расположение каналов                     : Front: L C R, Side: L R, LFE
    Частота                                  : 48,0 КГц
    Битовая глубина                          : 16 бит
    Метод сжатия                             : С потерями
    Размер потока                            : 357 Мбайт (16%)
    Выравнивание                             : Разделение по промежуткам
    Продолжительность промежутка             : 42  мс. (1,00 видеокадр)
    Время предзагрузки промежутка            : 500  мс.

    Аудио #2
    Идентификатор                            : 2
    Формат                                   : AC-3
    Формат/Информация                        : Audio Coding 3
    Расширение режима                        : CM (complete main)
    Параметр Endianness формата              : Big
    Идентификатор кодека                     : 2000
    Продолжительность                        : 1 ч. 51 м.
    Вид битрейта                             : Постоянный
    Битрейт                                  : 448 Кбит/сек
    Каналы                                   : 6 каналов
    Расположение каналов                     : Front: L C R, Side: L R, LFE
    Частота                                  : 48,0 КГц
    Битовая глубина                          : 16 бит
    Метод сжатия                             : С потерями
    Размер потока                            : 357 Мбайт (16%)
    Выравнивание                             : Разделение по промежуткам
    Продолжительность промежутка             : 42  мс. (1,00 видеокадр)
    Время предзагрузки промежутка            : 500  мс.

    Общее
    Полное имя                               : D:\Фильмы\Prizrachnyj.mir.2001.DUAL.BDRip.XviD.AC3.-HQCLUB\Prizrachnyj.mir.2001.DUAL.BDRip.XviD.AC3.-HQCLUB.AVO.VIZGUNOV.ac3
    Формат                                   : AC-3
    Формат/Информация                        : Audio Coding 3
    Размер файла                             : 357 Мбайт
    Продолжительность                        : 1 ч. 51 м.
    Режим общего битрейта                    : Постоянный
    Общий поток                              : 448 Кбит/сек

    Аудио
    Формат                                   : AC-3
    Формат/Информация                        : Audio Coding 3
    Расширение режима                        : CM (complete main)
    Параметр Endianness формата              : Big
    Продолжительность                        : 1 ч. 51 м.
    Вид битрейта                             : Постоянный
    Битрейт                                  : 448 Кбит/сек
    Каналы                                   : 6 каналов
    Расположение каналов                     : Front: L C R, Side: L R, LFE
    Частота                                  : 48,0 КГц
    Битовая глубина                          : 16 бит
    Метод сжатия                             : С потерями
    Размер потока                            : 357 Мбайт (100%)

    Общее
    Полное имя                               : D:\Фильмы\Prizrachnyj.mir.2001.DUAL.BDRip.XviD.AC3.-HQCLUB\Prizrachnyj.mir.2001.DUAL.BDRip.XviD.AC3.-HQCLUB.ENG.srt
    Формат                                   : SubRip
    Размер файла                             : 112 Кбайт

    Текст
    Формат                                   : SubRip
    Метод сжатия                             : Без потерь

    Общее
    Полное имя                               : D:\Фильмы\Prizrachnyj.mir.2001.DUAL.BDRip.XviD.AC3.-HQCLUB\Prizrachnyj.mir.2001.DUAL.BDRip.XviD.AC3.-HQCLUB.RUS.srt
    Формат                                   : SubRip
    Размер файла                             : 99,2 Кбайт

    Текст
    Формат                                   : SubRip
    Метод сжатия                             : Без потерь


    Скриншоты:


    pb.wtf



  • Скачать Призрачный мир через торрент http://i68.fastpic.ru/big/2014/0812/53/d04d7f64c6d3b032ed135c9e92422353.jpg Скачать фильм Призрачный мир через торрент бесплантно в хорошем качестве Описание: В то время, как все благовоспитанные выпускники средней школы отправились в колледж, наши героини Энид и Ребекка решили, что ... 9.3 10 7
    Info! Золотая раздача, скачанное не засчитывается.
    Торрент: Зарегистрирован [2014-08-12 08:22] · скачан: 76 раз
    Статус: √ проверено
    Размер: 2.53 GB
    Как cкачать? Как скачать Призрачный мир через торрент | UTorrent

    28-11-2019 20:33  

    Отключить всю рекламу на сайте

    12-08-2014 10:28 Призрачный мир Скачать торрент  

    вот это я понимаю оперативность:)
    низкий поклон, Вам сударь pb.wtf



    12-08-2014 11:07 Призрачный мир Скачать торрент  

    Отличный фильм! Сколько раз пересматривал и все равно доставляет.pb.wtf



    12-08-2014 12:55 Призрачный мир Скачать торрент  

    ТаможеНик писал(а):

    вот это я понимаю оперативность:)
    низкий поклон, Вам сударь

    Не вопрос))) Заказывайте)pb.wtf



    12-08-2014 12:56 Призрачный мир Скачать торрент  

    Supero351 писал(а):

    Отличный фильм! Сколько раз пересматривал и все равно доставляет.

    pb.wtf



      Дорогой пользователь! Огромная просьба, поблагодарите релизера, оцените раздачу и оставьте свои комментарий, если Вы скачали Призрачный мир через торрент бесплатно! Внесите свою лепту в развитие PiratBit!
      Комментировать посты могут только пользователи прошедшие не сложную регистрацию
      Показать сообщения:    

      Призрачный мир через торрент
      Скачать бесплатно Призрачный мир
      Призрачный мир скачать торрент
      Призрачный мир смотреть онлайн
      Cкачать фильм Призрачный мир бесплатно
      Призрачный мир скачать торрент в хорошем качестве
      Призрачный мир смотреть онлайн бесплатно в хорошем качестве


      Вы не можете начинать темы
      Вы не можете отвечать на сообщения
      Вы не можете редактировать свои сообщения
      Вы не можете удалять свои сообщения
      Вы не можете голосовать в опросах
      Вы не можете прикреплять файлы к сообщениям
      Вы можете скачивать файлы