2 сезон

iTunes

MVO

1

2 сезон

iTunes

iTunes

1 сезон

RePack

30

Новинка

ВАЖНО

ИГРА 18+

pack

RePack

MK11
pack

Легкие деньги

RePack

jed

RePack

fifa19

RePack

RDR2

RePack

NEED FOR SPEED™ PAYBACK

4 сезон

9 сезон

Бесстыжие 9 сезон

Все сериалы

все сериалы на PB.wtf

RePack

FAR CRY 5

Anonymous, доброй ночи, мы не успеваем собрать деньги на оплату серверов за декабрь и январь, помогите нам пожалуйста в это трудное время. В качестве благодарности мы отключим Вам всю рекламу на сайте (укажите свой ник в строку Ваше имя)!

×
  
Magnet ссылка

Живая сталь / Real Steel (Шон Леви) [2011 г., фантастика, боевик, семейный, BDRip 720p, Дубляж, Лицензия] 60 fps pb.wtf

Живая сталь через торрент pb.wtf

Размер: 6.09 GB | Добавлен: 6 лет 5 мес. назад | Торрент скачан:574 раза
Скачать  

12-08-2014 17:54 Живая сталь Скачать торрент  

Живая сталь / Real Steel Год выпуска: 2011
Страна: США, Индия
Жанр: фантастика, боевик, семейный
Продолжительность: 02:06:51




Перевод: Дубляж, Лицензия
Субтитры: Russian, English




Режиссер: Шон Леви









В ролях: Хью Джекман, Дакота Гойо, Эванджелин Лилли, Энтони Маки, Кевин Дюран, Хоуп Дэвис, Джеймс Ребхорн, Марко Руджери, Карл Йун, Ольга Фонда.




Описание: События фильма происходят в будущем, где бокс запрещен за негуманностью и заменен боями 2000-фунтовых роботов, управляемых людьми. Бывший боксер, а теперь промоутер, переметнувшийся в Робобокс, решает, что наконец нашел своего чемпиона, когда ему попадается выбракованный, но очень способный робот. Одновременно на жизненном пути героя возникает 11-летний пацан, оказывающийся его сыном. И по мере того, как машина пробивает свой путь к вершине, обретшие друг друга отец и сын учатся дружить.




Качество: BDRip 720p
Формат: MKV
Видео кодек: AVC
Аудио кодек: AC3
Видео: AVC, 1280x544 (2.35), 59.940 fps, 5 590 Kbps
Аудио 1: AC-3, 48.0 KHz, 6 ch, 640 Kbps, CBR (Дубляж)
Аудио 2: AC-3, 48.0 KHz, 6 ch, 640 Kbps, CBR (English)




скриншот   скриншот   скриншот  

скриншот   скриншот  

скриншот  
General
Unique ID : 175719613787288517255414711297813073276 (0x84325DD98EA6C351BD422CCC54394D7C)
Complete name : C:\Фильмы и мульты\Zhivaja.stal.(2011).BDRip.720p.[envy].[60fps].mkv
Format : Matroska
Format version : Version 2
File size : 6.09 GiB
Duration : 2h 6mn
Overall bit rate : 6 874 Kbps
Movie name : Живая сталь.(2011).BDRip.720p.[envy].[60fps]
Encoded date : UTC 2014-08-11 11:44:37
Writing application : mkvmerge v5.8.0 ('No Sleep / Pillow') built on Sep 2 2012 15:37:04
Writing library : libebml v1.2.3 + libmatroska v1.3.0

Video
ID : 1
Format : AVC
Format/Info : Advanced Video Codec
Format profile : High@L4.1
Format settings, CABAC : Yes
Format settings, ReFrames : 9 frames
Codec ID : V_MPEG4/ISO/AVC
Duration : 2h 6mn
Bit rate : 5 590 Kbps
Width : 1 280 pixels
Height : 544 pixels
Display aspect ratio : 2.35:1
Frame rate mode : Constant
Frame rate : 59.940 fps
Color space : YUV
Chroma subsampling : 4:2:0
Bit depth : 8 bits
Scan type : Progressive
Bits/(Pixel*Frame) : 0.134
Stream size : 4.84 GiB (79%)
Title : Живая сталь.(2011).BDRip.720p.[envy].[60fps]
Writing library : x264 core 130 r2273 b3065e6
Encoding settings : cabac=1 / ref=9 / deblock=1:0:0 / analyse=0x3:0x133 / me=umh / subme=10 / psy=1 / psy_rd=1.00:0.10 / mixed_ref=1 / me_range=28 / chroma_me=1 / trellis=2 / 8x8dct=1 / cqm=0 / deadzone=21,11 / fast_pskip=0 / chroma_qp_offset=-3 / threads=12 / lookahead_threads=1 / sliced_threads=0 / nr=0 / decimate=1 / interlaced=0 / bluray_compat=0 / constrained_intra=0 / bframes=5 / b_pyramid=2 / b_adapt=2 / b_bias=0 / direct=3 / weightb=1 / open_gop=0 / weightp=2 / keyint=250 / keyint_min=25 / scenecut=40 / intra_refresh=0 / rc=2pass / mbtree=0 / bitrate=5590 / ratetol=1.0 / qcomp=0.60 / qpmin=0 / qpmax=69 / qpstep=4 / cplxblur=20.0 / qblur=0.5 / ip_ratio=1.40 / pb_ratio=1.30 / aq=1:1.00
Language : English
Default : Yes
Forced : No

Audio #1
ID : 2
Format : AC-3
Format/Info : Audio Coding 3
Mode extension : CM (complete main)
Format settings, Endianness : Big
Codec ID : A_AC3
Duration : 2h 6mn
Bit rate mode : Constant
Bit rate : 640 Kbps
Channel(s) : 6 channels
Channel positions : Front: L C R, Side: L R, LFE
Sampling rate : 48.0 KHz
Bit depth : 16 bits
Compression mode : Lossy
Stream size : 581 MiB (9%)
Title : Dub
Language : Russian
Default : Yes
Forced : No

Audio #2
ID : 3
Format : AC-3
Format/Info : Audio Coding 3
Mode extension : CM (complete main)
Format settings, Endianness : Big
Codec ID : A_AC3
Duration : 2h 6mn
Bit rate mode : Constant
Bit rate : 640 Kbps
Channel(s) : 6 channels
Channel positions : Front: L C R, Side: L R, LFE
Sampling rate : 48.0 KHz
Bit depth : 16 bits
Compression mode : Lossy
Stream size : 581 MiB (9%)
Title : Eng
Language : English
Default : No
Forced : No

Text #1
ID : 4
Format : UTF-8
Codec ID : S_TEXT/UTF8
Codec ID/Info : UTF-8 Plain Text
Title : forced
Language : Russian
Default : Yes
Forced : Yes

Text #2
ID : 5
Format : UTF-8
Codec ID : S_TEXT/UTF8
Codec ID/Info : UTF-8 Plain Text
Title : full
Language : Russian
Default : No
Forced : No

Text #3
ID : 6
Format : UTF-8
Codec ID : S_TEXT/UTF8
Codec ID/Info : UTF-8 Plain Text
Title : full
Language : English
Default : No
Forced : No

Menu
00:00:00.000 : :Chapter 01
00:03:00.471 : :Chapter 02
00:10:38.304 : :Chapter 03
00:18:50.546 : :Chapter 04
00:24:29.885 : :Chapter 05
00:34:14.761 : :Chapter 06
00:41:22.354 : :Chapter 07
00:48:46.131 : :Chapter 08
00:52:08.708 : :Chapter 09
00:57:15.014 : :Chapter 10
01:05:01.230 : :Chapter 11
01:12:33.974 : :Chapter 12
01:18:26.993 : :Chapter 13
01:26:28.516 : :Chapter 14
01:32:50.773 : :Chapter 15
01:39:19.703 : :Chapter 16
01:48:22.662 : :Chapter 17
01:52:26.865 : :Chapter 18
01:57:21.868 : :Chapter 19
02:00:50.326 : :Chapter 20
02:06:50.394 : :Chapter 21
pb.wtf



Скачать Живая сталь через торрент http://i65.fastpic.ru/big/2014/0812/1f/8cd53ad747a849404411aabc9dcea11f.png Скачать фильм Живая сталь через торрент бесплантно в хорошем качестве Описание: События фильма происходят в будущем, где бокс запрещен за негуманностью и заменен боями 2000-фунтовых роботов, управляемых ... 9.9 10 22
Info! Золотая раздача, скачанное не засчитывается.
Торрент: Зарегистрирован [2014-08-12 17:54] · скачан: 574 раз
Статус: √ проверено
Размер: 6.09 GB
Как cкачать? Как скачать Живая сталь через торрент | UTorrent

% Раздел Тема Автор DL S | L
Фильмы (HD 720p, 1080p) (48-60 fps) [ 9.54 GB ] Живая сталь / Real Steel [2011 BDRip 720p 60fps Dub AVO Original] от R.G. HD-Films Tiberiumsun69 Скачать
4 | 0
Фильмы (HD 720p, 1080p) (48-60 fps) [ 23.83 GB ] Живая сталь / Real Steel [2011 BDRip 1080p 60fps Dub AVO Original] от R.G. HD-Films Tiberiumsun69 Скачать
2 | 1
Фильмы (BDRip, HDrip-AVC) (48-60 fps) [ 5.78 GB ] Живая сталь / Real Steel [2011 BDRip-AVC 60fps Dub AVO Original] от R.G. HD-Films Tiberiumsun69 Скачать
1 | 1

28-11-2019 20:33  

Отключить всю рекламу на сайте

12-08-2014 18:49 Живая сталь Скачать торрент  

Прикольный фильмец, побольше бы таких, смотрел на широком экране когда стартовал, малец просто убой )))))))pb.wtf



    Дорогой пользователь! Огромная просьба, поблагодарите релизера, оцените раздачу и оставьте свои комментарий, если Вы скачали Живая сталь через торрент бесплатно! Внесите свою лепту в развитие PiratBit!
    Комментировать посты могут только пользователи прошедшие не сложную регистрацию
    Показать сообщения:    

    Живая сталь через торрент
    Скачать бесплатно Живая сталь
    Живая сталь скачать торрент
    Живая сталь смотреть онлайн
    Cкачать фильм Живая сталь бесплатно
    Живая сталь скачать торрент в хорошем качестве
    Живая сталь смотреть онлайн бесплатно в хорошем качестве


    Вы не можете начинать темы
    Вы не можете отвечать на сообщения
    Вы не можете редактировать свои сообщения
    Вы не можете удалять свои сообщения
    Вы не можете голосовать в опросах
    Вы не можете прикреплять файлы к сообщениям
    Вы можете скачивать файлы