Ссылка на приватное зеркало нашего сайта всего за 1$. Внимание количество ограничено!!!

2 сезон

iTunes

1 сезон

1

iTunes

iTunes

iTunes

1 сезон

RePack

30

ИГРА 18+

pack

ВАЖНО

!!Акция!!

Alien_RageХит недели

RePack

MK11
pack

Забери бонус

RePack

jed

!!Акция!!

Alien_Rage

RePack

fifa19

RePack

Assassins Creed: Odyssey

RePack

NEED FOR SPEED™ PAYBACK

4 сезон

9 сезон

Бесстыжие 9 сезон

Все сериалы

все сериалы на PB.wtf

RePack

FAR CRY 5
  

Дело для двоих / Сезон: 1 /Серии 1-12 из 12 (Антон Азаров, Карим Шихар) [2014, Россия, детектив, SATRip) pb.wtf

Дело для двоих через торрент pb.wtf

Размер: 6.32 GB | Добавлен: 6 лет 2 мес. назад | Торрент скачан:413 раз
Скачать  

13-08-2014 01:44 Дело для двоих Скачать торрент  

Дело для двоих


  • Год выпуска: 201
  • Страна: Россия
  • Жанр: детектив
  • Продолжительность: 00:47:01(Серия)
  • Перевод: Не требуется

  • Режиссер: Антон Азаров, Карим Шихар
  • В ролях:

    Анна Пескова (Анна Зуева), Михаил Химичев (Павел Демьянов), Евгений Бургела (криминалист), Александр Кобзарь (Скворцов), Александр Трошин (Женя), Сергей Романюк (Самойлов), Сергей Калантай (отец Полины), Андрей Исаенко (киллер), Борис Книженко (Мохов), Валерия Чокурашвили, Янина Соколова (Лена), Анна Сырбу (Лия)

  • Описание:
    История пойдет о работе двух коллег специального отдела внутренних дел. Они - «профи», мастера своего дела, поэтому им достается всегда самое сложное и запутанное дело, с кровавым убийством. Две привлекательные и молодые женщины, с сильным характером. За плечами большой опыт работы со многими преступниками, в том числе маньяками, киллерами и рецидивистами. Не каждый человек способен изо дня в день терпеть тяжелый и напряжённый график, где жизнь постоянно находится под угрозой, но только не они. Их главный объект работы - общественная безопасность, и выявление криминальных структур.
  • Рейтинг:



  • Качество: SATRip
  • Формат: :AVI
  • Видео кодек: XviD
  • Аудио кодек: MP3
  • Видео: 704x368 (1.913), 1642 kbps, 25 fps, 0,216 bpp
  • Аудио: 2.0 / 48 kHz / 128 kbps
  • Релиз от: GEKADOL

    Не нашли то, что искали? Для вас "Стол заказов" "Жмём сюда!"

    Код:

    Внимание! Раздача ведётся путём добавления новых серий; при каждом добавлении создаётся новый торрент. Чтобы начать докачку новой серии, пользователям необходимо сделать следующее:
    (1) остановить скачивание,
    (2) удалить старый торрент у себя из клиента (старые серии удалять не надо),
    (3) скачать новый торрент и запустить его у себя в клиенте вместо старого, при этом указать клиенту путь в старую папку куда и должно происходить скачивание новых серий.
    Ваш клиент при этом должен произвести хеширование (проверку) старой папки (если не производит сам - помогите ему сделать это), и будет докачивать только те серии которых у вас ещё нет. Старые серии при этом не удаляются, а продолжают раздаваться!
    Eсли вы уже удалили старые серии, то предотвратить повторную закачку старых серий можно, отжав галочку в соответсвующих местах при запуске нового торрента. По возможности, желательно не удалять старые серии как можно дольше чтобы релизёр не столько продолжал раздавать старые серии, а смог сконцентрироваться на новых.


    Код:

    General
    Complete name                            : G:\Дело для двоих (2014)\Дело для двоих.(02.seriya).2014.XviD.SATRip.by.simka.avi
    Format                                   : AVI
    Format/Info                              : Audio Video Interleave
    File size                                : 539 MiB
    Duration                                 : 47mn 1s
    Overall bit rate                         : 1 602 Kbps
    Writing application                      : VirtualDubModRus 1.5.10.2 (build 2542/release)
    Writing library                          : VirtualDubMod build 2542/release

    Video
    ID                                       : 0
    Format                                   : MPEG-4 Visual
    Format profile                           : Advanced Simple@L5
    Format settings, BVOP                    : 1
    Format settings, QPel                    : No
    Format settings, GMC                     : No warppoints
    Format settings, Matrix                  : Default (MPEG)
    Codec ID                                 : XVID
    Codec ID/Hint                            : XviD
    Duration                                 : 47mn 1s
    Bit rate                                 : 1 400 Kbps
    Width                                    : 704 pixels
    Height                                   : 368 pixels
    Display aspect ratio                     : 1.913
    Frame rate                               : 25.000 fps
    Color space                              : YUV
    Chroma subsampling                       : 4:2:0
    Bit depth                                : 8 bits
    Scan type                                : Progressive
    Compression mode                         : Lossy
    Bits/(Pixel*Frame)                       : 0.216
    Stream size                              : 471 MiB (87%)
    Writing library                          : XviD 1.2.1 (UTC 2008-12-04)

    Audio
    ID                                       : 1
    Format                                   : MPEG Audio
    Format version                           : Version 1
    Format profile                           : Layer 3
    Mode                                     : Joint stereo
    Mode extension                           : MS Stereo
    Codec ID                                 : 55
    Codec ID/Hint                            : MP3
    Duration                                 : 47mn 1s
    Bit rate mode                            : Constant
    Bit rate                                 : 192 Kbps
    Channel(s)                               : 2 channels
    Sampling rate                            : 48.0 KHz
    Compression mode                         : Lossy
    Stream size                              : 64.6 MiB (12%)
    Alignment                                : Aligned on interleaves
    Interleave, duration                     : 40 ms (1.00 video frame)
    Interleave, preload duration             : 504 ms
    Writing library                          : LAME3.99r
    Encoding settings                        : -m j -V 4 -q 2 -lowpass 18.6 -b 192


    Скриншоты:
    скриншот   скриншот   скриншот   скриншот  

    Раздача ведётся путём добавления новых серий. Добавлена 12 серия (20.08.2014).Просьба перекачать торрент файл.

    pb.wtf



  • Скачать Дело для двоих через торрент http://i68.fastpic.ru/big/2014/0813/5e/2478a5361e232bc1721c026080aad95e.jpg Скачать фильм Дело для двоих через торрент бесплантно в хорошем качестве Описание: История пойдет о работе двух коллег специального отдела внутренних дел. Они - «профи», мастера своего дела, поэтому им достается ... 9.8 10 15
    Info! Золотая раздача, скачанное не засчитывается.
    Торрент: Зарегистрирован [2014-08-20 00:45] · скачан: 413 раз
    Статус: √ проверено
    Размер: 6.32 GB
    Как cкачать? Как скачать Дело для двоих через торрент | qTorrent



    Последний раз редактировалось: GEKADOL (2014-08-20 00:44), всего редактировалось 2 раз(а)

    28-11-2019 20:33  

    Отключить всю рекламу на сайте

    13-08-2014 11:23 Дело для двоих Скачать торрент  

    201 год?)pb.wtf



    20-08-2014 00:46 Дело для двоих Скачать торрент  

    lord100690 писал(а):

    201 год?)

    Ага))) Глюк какой то)pb.wtf



    12-09-2015 22:21 Дело для двоих Скачать торрент  

    большое спасибо.заценим :declare:pb.wtf



      Дорогой пользователь! Огромная просьба, поблагодарите релизера, оцените раздачу и оставьте свои комментарий, если Вы скачали Дело для двоих через торрент бесплатно! Внесите свою лепту в развитие PiratBit!
      Комментировать посты могут только пользователи прошедшие не сложную регистрацию
      Показать сообщения:    

      Дело для двоих через торрент
      Скачать бесплатно Дело для двоих
      Дело для двоих скачать торрент
      Дело для двоих смотреть онлайн
      Cкачать фильм Дело для двоих бесплатно
      Дело для двоих скачать торрент в хорошем качестве
      Дело для двоих смотреть онлайн бесплатно в хорошем качестве


      Вы не можете начинать темы
      Вы не можете отвечать на сообщения
      Вы не можете редактировать свои сообщения
      Вы не можете удалять свои сообщения
      Вы не можете голосовать в опросах
      Вы не можете прикреплять файлы к сообщениям
      Вы можете скачивать файлы