Ссылка на приватное зеркало нашего сайта всего за 1$. Внимание количество ограничено!!!

2 сезон

iTunes

1 сезон

1

iTunes

iTunes

iTunes

1 сезон

RePack

30

ИГРА 18+

pack

ВАЖНО

!!Акция!!

Alien_RageХит недели

RePack

MK11
pack

Забери бонус

RePack

jed

!!Акция!!

Alien_Rage

RePack

fifa19

RePack

Assassins Creed: Odyssey

RePack

NEED FOR SPEED™ PAYBACK

4 сезон

9 сезон

Бесстыжие 9 сезон

Все сериалы

все сериалы на PB.wtf

RePack

FAR CRY 5
  

Проклятый рай / Серии: 48 из 48 (Игорь Коробейников) [2006, Россия, криминал, SATRip] pb.wtf

Проклятый рай через торрент pb.wtf

Размер: 16.23 GB | Добавлен: 6 лет 2 мес. назад | Торрент скачан:69 раз
Скачать  

13-08-2014 17:57 Проклятый рай Скачать торрент  

Проклятый рай

Год выпуска: 2006
Страна: Россия
Жанр: криминал
Продолжительность: 00:43:34
Перевод: Не требуется
Субтитры: Нет
Режиссер: Игорь Коробейников
В ролях: Эвелина Блёданс (Екатерина Ивановна), Максим Дрозд (Каин), Владимир Скворцов (Алик), Алексей Якубов (Семеныч), Юлия Беретта (Марина), Никита Салопин (Николай), Анжелика Агурбаш (Бэла), Михаил Дорожкин (Саша), Ольга Зейгер (Анюта), Юлия Учиткина (Малолетка), Дмитрий Комов (Олег Петрович), Наталья Гудкова (Света)
Описание:
Элитный бордель для особо важных персон. Здесь продаются жаркие ласки и кипят нешуточные страсти. Четко отлаженный криминальный механизм дал сбой: убита одна из новых девочек. Чтобы не подвергнуть угрозе свое благополучие, немолодая управляющая борделя решает как можно быстрее спрятать концы в воду. Для этого она призывает начальника охраны - циничного безжалостного головореза по кличке Каин - и велит ему устранить мать девушки... Жестокие законы большого города, прелести преступной любви, слабости сильных мира сего. Что такое - жизнь «по ту сторону» морали - и каков он, кодекс бесчестья?
Рейтинг

Качество: SATRip
Формат: AVI
Видео кодек: DivX 5
Аудио кодек:MP3
Видео: DivX 5, 640x480 (4:3), 951 kbps, 25 fps, 0,124 bpp
Аудио: MP3 / 2.0 / 44 kHz / 128 kbps /

Общее
Полное имя : F:\Релиз\Prokliatyj Raj 1-48_(48)_SATRip_2007\Prokliatyj_Raj-01.avi
Формат : AVI
Формат/Информация : Audio Video Interleave
Размер файла : 340 Мбайт
Продолжительность : 43 м.
Общий поток : 1090 Кбит/сек
Библиотека кодирования : VirtualDub-MPEG2 build 24417/release

Видео
Идентификатор : 0
Формат : MPEG-4 Visual
Параметр BVOP формата : 1
Параметр QPel формата : Нет
Параметр GMC формата : Без точки перехода
Параметр матрицы формата : Default (H.263)
Режим смешивания : Сжатый битовый поток
Идентификатор кодека : DX50
Идентификатор кодека/Подсказка : DivX 5
Продолжительность : 43 м.
Битрейт : 952 Кбит/сек
Ширина : 640 пикселей
Высота : 480 пикселей
Соотношение сторон : 4:3
Частота кадров : 25,000 кадров/сек
Цветовое пространство : YUV
Субдискретизация насыщенности : 4:2:0
Битовая глубина : 8 бит
Тип развёртки : Прогрессивная
Метод сжатия : С потерями
Бит/(Пиксели*Кадры) : 0.124
Размер потока : 297 Мбайт (87%)
Библиотека кодирования : DivX 5.1.1 (Maupiti) (UTC 2003-11-19)

Аудио
Идентификатор : 1
Формат : MPEG Audio
Версия формата : Version 1
Профиль формата : Layer 3
Режим : Joint stereo
Расширение режима : MS Stereo
Идентификатор кодека : 55
Идентификатор кодека/Подсказка : MP3
Продолжительность : 43 м.
Вид битрейта : Постоянный
Битрейт : 128 Кбит/сек
Каналы : 2 канала
Частота : 44,1 КГц
Метод сжатия : С потерями
Размер потока : 39,9 Мбайт (12%)
Выравнивание : Разделение по промежуткам
Продолжительность промежутка : 40 мс. (1,00 видеокадр)
Время предзагрузки промежутка : 500 мс.

Общее
Полное имя : F:\Релиз\Prokliatyj Raj 1-48_(48)_SATRip_2007\Prokliatyj_Raj-02.avi
Формат : AVI
Формат/Информация : Audio Video Interleave
Размер файла : 342 Мбайт
Продолжительность : 43 м.
Общий поток : 1089 Кбит/сек
Библиотека кодирования : VirtualDub-MPEG2 build 24417/release

Видео
Идентификатор : 0
Формат : MPEG-4 Visual
Параметр BVOP формата : 1
Параметр QPel формата : Нет
Параметр GMC формата : Без точки перехода
Параметр матрицы формата : Default (H.263)
Режим смешивания : Сжатый битовый поток
Идентификатор кодека : DX50
Идентификатор кодека/Подсказка : DivX 5
Продолжительность : 43 м.
Битрейт : 952 Кбит/сек
Ширина : 640 пикселей
Высота : 480 пикселей
Соотношение сторон : 4:3
Частота кадров : 25,000 кадров/сек
Цветовое пространство : YUV
Субдискретизация насыщенности : 4:2:0
Битовая глубина : 8 бит
Тип развёртки : Прогрессивная
Метод сжатия : С потерями
Бит/(Пиксели*Кадры) : 0.124
Размер потока : 299 Мбайт (87%)
Библиотека кодирования : DivX 5.1.1 (Maupiti) (UTC 2003-11-19)

Аудио
Идентификатор : 1
Формат : MPEG Audio
Версия формата : Version 1
Профиль формата : Layer 3
Режим : Joint stereo
Расширение режима : MS Stereo
Идентификатор кодека : 55
Идентификатор кодека/Подсказка : MP3
Продолжительность : 43 м.
Вид битрейта : Постоянный
Битрейт : 128 Кбит/сек
Каналы : 2 канала
Частота : 44,1 КГц
Метод сжатия : С потерями
Размер потока : 40,2 Мбайт (12%)
Выравнивание : Разделение по промежуткам
Продолжительность промежутка : 40 мс. (1,00 видеокадр)
Время предзагрузки промежутка : 500 мс.

Общее
Полное имя : F:\Релиз\Prokliatyj Raj 1-48_(48)_SATRip_2007\Prokliatyj_Raj-03.avi
Формат : AVI
Формат/Информация : Audio Video Interleave
Размер файла : 342 Мбайт
Продолжительность : 43 м.
Общий поток : 1090 Кбит/сек
Библиотека кодирования : VirtualDub-MPEG2 build 24417/release

Видео
Идентификатор : 0
Формат : MPEG-4 Visual
Параметр BVOP формата : 1
Параметр QPel формата : Нет
Параметр GMC формата : Без точки перехода
Параметр матрицы формата : Default (H.263)
Режим смешивания : Сжатый битовый поток
Идентификатор кодека : DX50
Идентификатор кодека/Подсказка : DivX 5
Продолжительность : 43 м.
Битрейт : 952 Кбит/сек
Ширина : 640 пикселей
Высота : 480 пикселей
Соотношение сторон : 4:3
Частота кадров : 25,000 кадров/сек
Цветовое пространство : YUV
Субдискретизация насыщенности : 4:2:0
Битовая глубина : 8 бит
Тип развёртки : Прогрессивная
Метод сжатия : С потерями
Бит/(Пиксели*Кадры) : 0.124
Размер потока : 299 Мбайт (87%)
Библиотека кодирования : DivX 5.1.1 (Maupiti) (UTC 2003-11-19)

Аудио
Идентификатор : 1
Формат : MPEG Audio
Версия формата : Version 1
Профиль формата : Layer 3
Режим : Joint stereo
Расширение режима : MS Stereo
Идентификатор кодека : 55
Идентификатор кодека/Подсказка : MP3
Продолжительность : 43 м.
Вид битрейта : Постоянный
Битрейт : 128 Кбит/сек
Каналы : 2 канала
Частота : 44,1 КГц
Метод сжатия : С потерями
Размер потока : 40,2 Мбайт (12%)
Выравнивание : Разделение по промежуткам
Продолжительность промежутка : 40 мс. (1,00 видеокадр)
Время предзагрузки промежутка : 500 мс.

Общее
Полное имя : F:\Релиз\Prokliatyj Raj 1-48_(48)_SATRip_2007\Prokliatyj_Raj-04.avi
Формат : AVI
Формат/Информация : Audio Video Interleave
Размер файла : 342 Мбайт
Продолжительность : 43 м.
Общий поток : 1089 Кбит/сек
Библиотека кодирования : VirtualDub-MPEG2 build 24417/release

Видео
Идентификатор : 0
Формат : MPEG-4 Visual
Параметр BVOP формата : 1
Параметр QPel формата : Нет
Параметр GMC формата : Без точки перехода
Параметр матрицы формата : Default (H.263)
Режим смешивания : Сжатый битовый поток
Идентификатор кодека : DX50
Идентификатор кодека/Подсказка : DivX 5
Продолжительность : 43 м.
Битрейт : 952 Кбит/сек
Ширина : 640 пикселей
Высота : 480 пикселей
Соотношение сторон : 4:3
Частота кадров : 25,000 кадров/сек
Цветовое пространство : YUV
Субдискретизация насыщенности : 4:2:0
Битовая глубина : 8 бит
Тип развёртки : Прогрессивная
Метод сжатия : С потерями
Бит/(Пиксели*Кадры) : 0.124
Размер потока : 299 Мбайт (87%)
Библиотека кодирования : DivX 5.1.1 (Maupiti) (UTC 2003-11-19)

Аудио
Идентификатор : 1
Формат : MPEG Audio
Версия формата : Version 1
Профиль формата : Layer 3
Режим : Joint stereo
Расширение режима : MS Stereo
Идентификатор кодека : 55
Идентификатор кодека/Подсказка : MP3
Продолжительность : 43 м.
Вид битрейта : Постоянный
Битрейт : 128 Кбит/сек
Каналы : 2 канала
Частота : 44,1 КГц
Метод сжатия : С потерями
Размер потока : 40,2 Мбайт (12%)
Выравнивание : Разделение по промежуткам
Продолжительность промежутка : 40 мс. (1,00 видеокадр)
Время предзагрузки промежутка : 500 мс.

Общее
Полное имя : F:\Релиз\Prokliatyj Raj 1-48_(48)_SATRip_2007\Prokliatyj_Raj-05.avi
Формат : AVI
Формат/Информация : Audio Video Interleave
Размер файла : 341 Мбайт
Продолжительность : 43 м.
Общий поток : 1088 Кбит/сек
Библиотека кодирования : VirtualDub-MPEG2 build 24417/release

Видео
Идентификатор : 0
Формат : MPEG-4 Visual
Параметр BVOP формата : 1
Параметр QPel формата : Нет
Параметр GMC формата : Без точки перехода
Параметр матрицы формата : Default (H.263)
Режим смешивания : Сжатый битовый поток
Идентификатор кодека : DX50
Идентификатор кодека/Подсказка : DivX 5
Продолжительность : 43 м.
Битрейт : 950 Кбит/сек
Ширина : 640 пикселей
Высота : 480 пикселей
Соотношение сторон : 4:3
Частота кадров : 25,000 кадров/сек
Цветовое пространство : YUV
Субдискретизация насыщенности : 4:2:0
Битовая глубина : 8 бит
Тип развёртки : Прогрессивная
Метод сжатия : С потерями
Бит/(Пиксели*Кадры) : 0.124
Размер потока : 298 Мбайт (87%)
Библиотека кодирования : DivX 5.1.1 (Maupiti) (UTC 2003-11-19)

Аудио
Идентификатор : 1
Формат : MPEG Audio
Версия формата : Version 1
Профиль формата : Layer 3
Режим : Joint stereo
Расширение режима : MS Stereo
Идентификатор кодека : 55
Идентификатор кодека/Подсказка : MP3
Продолжительность : 43 м.
Вид битрейта : Постоянный
Битрейт : 128 Кбит/сек
Каналы : 2 канала
Частота : 44,1 КГц
Метод сжатия : С потерями
Размер потока : 40,2 Мбайт (12%)
Выравнивание : Разделение по промежуткам
Продолжительность промежутка : 40 мс. (1,00 видеокадр)
Время предзагрузки промежутка : 500 мс.

Общее
Полное имя : F:\Релиз\Prokliatyj Raj 1-48_(48)_SATRip_2007\Prokliatyj_Raj-06.avi
Формат : AVI
Формат/Информация : Audio Video Interleave
Размер файла : 342 Мбайт
Продолжительность : 43 м.
Общий поток : 1088 Кбит/сек
Библиотека кодирования : VirtualDub-MPEG2 build 24417/release

Видео
Идентификатор : 0
Формат : MPEG-4 Visual
Параметр BVOP формата : 1
Параметр QPel формата : Нет
Параметр GMC формата : Без точки перехода
Параметр матрицы формата : Default (H.263)
Режим смешивания : Сжатый битовый поток
Идентификатор кодека : DX50
Идентификатор кодека/Подсказка : DivX 5
Продолжительность : 43 м.
Битрейт : 950 Кбит/сек
Ширина : 640 пикселей
Высота : 480 пикселей
Соотношение сторон : 4:3
Частота кадров : 25,000 кадров/сек
Цветовое пространство : YUV
Субдискретизация насыщенности : 4:2:0
Битовая глубина : 8 бит
Тип развёртки : Прогрессивная
Метод сжатия : С потерями
Бит/(Пиксели*Кадры) : 0.124
Размер потока : 299 Мбайт (87%)
Библиотека кодирования : DivX 5.1.1 (Maupiti) (UTC 2003-11-19)

Аудио
Идентификатор : 1
Формат : MPEG Audio
Версия формата : Version 1
Профиль формата : Layer 3
Режим : Joint stereo
Расширение режима : MS Stereo
Идентификатор кодека : 55
Идентификатор кодека/Подсказка : MP3
Продолжительность : 43 м.
Вид битрейта : Постоянный
Битрейт : 128 Кбит/сек
Каналы : 2 канала
Частота : 44,1 КГц
Метод сжатия : С потерями
Размер потока : 40,2 Мбайт (12%)
Выравнивание : Разделение по промежуткам
Продолжительность промежутка : 40 мс. (1,00 видеокадр)
Время предзагрузки промежутка : 500 мс.

Общее
Полное имя : F:\Релиз\Prokliatyj Raj 1-48_(48)_SATRip_2007\Prokliatyj_Raj-07.avi
Формат : AVI
Формат/Информация : Audio Video Interleave
Размер файла : 342 Мбайт
Продолжительность : 43 м.
Общий поток : 1089 Кбит/сек
Библиотека кодирования : VirtualDub-MPEG2 build 24417/release

Видео
Идентификатор : 0
Формат : MPEG-4 Visual
Параметр BVOP формата : 1
Параметр QPel формата : Нет
Параметр GMC формата : Без точки перехода
Параметр матрицы формата : Default (H.263)
Режим смешивания : Сжатый битовый поток
Идентификатор кодека : DX50
Идентификатор кодека/Подсказка : DivX 5
Продолжительность : 43 м.
Битрейт : 951 Кбит/сек
Ширина : 640 пикселей
Высота : 480 пикселей
Соотношение сторон : 4:3
Частота кадров : 25,000 кадров/сек
Цветовое пространство : YUV
Субдискретизация насыщенности : 4:2:0
Битовая глубина : 8 бит
Тип развёртки : Прогрессивная
Метод сжатия : С потерями
Бит/(Пиксели*Кадры) : 0.124
Размер потока : 299 Мбайт (87%)
Библиотека кодирования : DivX 5.2.1 (WaffleDay) (UTC 2004-09-08)

Аудио
Идентификатор : 1
Формат : MPEG Audio
Версия формата : Version 1
Профиль формата : Layer 3
Режим : Joint stereo
Расширение режима : MS Stereo
Идентификатор кодека : 55
Идентификатор кодека/Подсказка : MP3
Продолжительность : 43 м.
Вид битрейта : Постоянный
Битрейт : 128 Кбит/сек
Каналы : 2 канала
Частота : 44,1 КГц
Метод сжатия : С потерями
Размер потока : 40,2 Мбайт (12%)
Выравнивание : Разделение по промежуткам
Продолжительность промежутка : 40 мс. (1,00 видеокадр)
Время предзагрузки промежутка : 500 мс.

Общее
Полное имя : F:\Релиз\Prokliatyj Raj 1-48_(48)_SATRip_2007\Prokliatyj_Raj-08.avi
Формат : AVI
Формат/Информация : Audio Video Interleave
Размер файла : 342 Мбайт
Продолжительность : 43 м.
Общий поток : 1088 Кбит/сек
Библиотека кодирования : VirtualDub-MPEG2 build 24417/release

Видео
Идентификатор : 0
Формат : MPEG-4 Visual
Параметр BVOP формата : 1
Параметр QPel формата : Нет
Параметр GMC формата : Без точки перехода
Параметр матрицы формата : Default (H.263)
Режим смешивания : Сжатый битовый поток
Идентификатор кодека : DX50
Идентификатор кодека/Подсказка : DivX 5
Продолжительность : 43 м.
Битрейт : 950 Кбит/сек
Ширина : 640 пикселей
Высота : 480 пикселей
Соотношение сторон : 4:3
Частота кадров : 25,000 кадров/сек
Цветовое пространство : YUV
Субдискретизация насыщенности : 4:2:0
Битовая глубина : 8 бит
Тип развёртки : Прогрессивная
Метод сжатия : С потерями
Бит/(Пиксели*Кадры) : 0.124
Размер потока : 299 Мбайт (87%)
Библиотека кодирования : DivX 5.2.1 (WaffleDay) (UTC 2004-09-08)

Аудио
Идентификатор : 1
Формат : MPEG Audio
Версия формата : Version 1
Профиль формата : Layer 3
Режим : Joint stereo
Расширение режима : MS Stereo
Идентификатор кодека : 55
Идентификатор кодека/Подсказка : MP3
Продолжительность : 43 м.
Вид битрейта : Постоянный
Битрейт : 128 Кбит/сек
Каналы : 2 канала
Частота : 44,1 КГц
Метод сжатия : С потерями
Размер потока : 40,2 Мбайт (12%)
Выравнивание : Разделение по промежуткам
Продолжительность промежутка : 40 мс. (1,00 видеокадр)
Время предзагрузки промежутка : 500 мс.

Общее
Полное имя : F:\Релиз\Prokliatyj Raj 1-48_(48)_SATRip_2007\Prokliatyj_Raj-09.avi
Формат : AVI
Формат/Информация : Audio Video Interleave
Размер файла : 349 Мбайт
Продолжительность : 43 м.
Общий поток : 1109 Кбит/сек
Библиотека кодирования : VirtualDub-MPEG2 build 24417/release

Видео
Идентификатор : 0
Формат : MPEG-4 Visual
Параметр BVOP формата : 1
Параметр QPel формата : Нет
Параметр GMC формата : Без точки перехода
Параметр матрицы формата : Default (H.263)
Режим смешивания : Сжатый битовый поток
Идентификатор кодека : DX50
Идентификатор кодека/Подсказка : DivX 5
Продолжительность : 43 м.
Битрейт : 971 Кбит/сек
Ширина : 640 пикселей
Высота : 480 пикселей
Соотношение сторон : 4:3
Частота кадров : 25,000 кадров/сек
Цветовое пространство : YUV
Субдискретизация насыщенности : 4:2:0
Битовая глубина : 8 бит
Тип развёртки : Прогрессивная
Метод сжатия : С потерями
Бит/(Пиксели*Кадры) : 0.126
Размер потока : 305 Мбайт (88%)
Библиотека кодирования : DivX 5.1.1 (Maupiti) (UTC 2003-11-19)

Аудио
Идентификатор : 1
Формат : MPEG Audio
Версия формата : Version 1
Профиль формата : Layer 3
Режим : Joint stereo
Расширение режима : MS Stereo
Идентификатор кодека : 55
Идентификатор кодека/Подсказка : MP3
Продолжительность : 43 м.
Вид битрейта : Постоянный
Битрейт : 128 Кбит/сек
Каналы : 2 канала
Частота : 44,1 КГц
Метод сжатия : С потерями
Размер потока : 40,2 Мбайт (12%)
Выравнивание : Разделение по промежуткам
Продолжительность промежутка : 40 мс. (1,00 видеокадр)
Время предзагрузки промежутка : 500 мс.

Общее
Полное имя : F:\Релиз\Prokliatyj Raj 1-48_(48)_SATRip_2007\Prokliatyj_Raj-10.avi
Формат : AVI
Формат/Информация : Audio Video Interleave
Размер файла : 349 Мбайт
Продолжительность : 43 м.
Общий поток : 1109 Кбит/сек
Библиотека кодирования : VirtualDub-MPEG2 build 24417/release

Видео
Идентификатор : 0
Формат : MPEG-4 Visual
Параметр BVOP формата : 1
Параметр QPel формата : Нет
Параметр GMC формата : Без точки перехода
Параметр матрицы формата : Default (H.263)
Режим смешивания : Сжатый битовый поток
Идентификатор кодека : DX50
Идентификатор кодека/Подсказка : DivX 5
Продолжительность : 43 м.
Битрейт : 971 Кбит/сек
Ширина : 640 пикселей
Высота : 480 пикселей
Соотношение сторон : 4:3
Частота кадров : 25,000 кадров/сек
Цветовое пространство : YUV
Субдискретизация насыщенности : 4:2:0
Битовая глубина : 8 бит
Тип развёртки : Прогрессивная
Метод сжатия : С потерями
Бит/(Пиксели*Кадры) : 0.126
Размер потока : 305 Мбайт (88%)
Библиотека кодирования : DivX 5.1.1 (Maupiti) (UTC 2003-11-19)

Аудио
Идентификатор : 1
Формат : MPEG Audio
Версия формата : Version 1
Профиль формата : Layer 3
Режим : Joint stereo
Расширение режима : MS Stereo
Идентификатор кодека : 55
Идентификатор кодека/Подсказка : MP3
Продолжительность : 43 м.
Вид битрейта : Постоянный
Битрейт : 128 Кбит/сек
Каналы : 2 канала
Частота : 44,1 КГц
Метод сжатия : С потерями
Размер потока : 40,2 Мбайт (12%)
Выравнивание : Разделение по промежуткам
Продолжительность промежутка : 40 мс. (1,00 видеокадр)
Время предзагрузки промежутка : 500 мс.

Общее
Полное имя : F:\Релиз\Prokliatyj Raj 1-48_(48)_SATRip_2007\Prokliatyj_Raj-11.avi
Формат : AVI
Формат/Информация : Audio Video Interleave
Размер файла : 348 Мбайт
Продолжительность : 43 м.
Общий поток : 1108 Кбит/сек
Библиотека кодирования : VirtualDub-MPEG2 build 24417/release

Видео
Идентификатор : 0
Формат : MPEG-4 Visual
Параметр BVOP формата : 1
Параметр QPel формата : Нет
Параметр GMC формата : Без точки перехода
Параметр матрицы формата : Default (H.263)
Режим смешивания : Сжатый битовый поток
Идентификатор кодека : DX50
Идентификатор кодека/Подсказка : DivX 5
Продолжительность : 43 м.
Битрейт : 971 Кбит/сек
Ширина : 640 пикселей
Высота : 480 пикселей
Соотношение сторон : 4:3
Частота кадров : 25,000 кадров/сек
Цветовое пространство : YUV
Субдискретизация насыщенности : 4:2:0
Битовая глубина : 8 бит
Тип развёртки : Прогрессивная
Метод сжатия : С потерями
Бит/(Пиксели*Кадры) : 0.126
Размер потока : 305 Мбайт (88%)
Библиотека кодирования : DivX 5.1.1 (Maupiti) (UTC 2003-11-19)

Аудио
Идентификатор : 1
Формат : MPEG Audio
Версия формата : Version 1
Профиль формата : Layer 3
Режим : Joint stereo
Расширение режима : MS Stereo
Идентификатор кодека : 55
Идентификатор кодека/Подсказка : MP3
Продолжительность : 43 м.
Вид битрейта : Постоянный
Битрейт : 128 Кбит/сек
Каналы : 2 канала
Частота : 44,1 КГц
Метод сжатия : С потерями
Размер потока : 40,2 Мбайт (12%)
Выравнивание : Разделение по промежуткам
Продолжительность промежутка : 40 мс. (1,00 видеокадр)
Время предзагрузки промежутка : 500 мс.

Общее
Полное имя : F:\Релиз\Prokliatyj Raj 1-48_(48)_SATRip_2007\Prokliatyj_Raj-12.avi
Формат : AVI
Формат/Информация : Audio Video Interleave
Размер файла : 348 Мбайт
Продолжительность : 43 м.
Общий поток : 1108 Кбит/сек
Библиотека кодирования : VirtualDub-MPEG2 build 24417/release

Видео
Идентификатор : 0
Формат : MPEG-4 Visual
Параметр BVOP формата : 1
Параметр QPel формата : Нет
Параметр GMC формата : Без точки перехода
Параметр матрицы формата : Default (H.263)
Режим смешивания : Сжатый битовый поток
Идентификатор кодека : DX50
Идентификатор кодека/Подсказка : DivX 5
Продолжительность : 43 м.
Битрейт : 970 Кбит/сек
Ширина : 640 пикселей
Высота : 480 пикселей
Соотношение сторон : 4:3
Частота кадров : 25,000 кадров/сек
Цветовое пространство : YUV
Субдискретизация насыщенности : 4:2:0
Битовая глубина : 8 бит
Тип развёртки : Прогрессивная
Метод сжатия : С потерями
Бит/(Пиксели*Кадры) : 0.126
Размер потока : 305 Мбайт (88%)
Библиотека кодирования : DivX 5.1.1 (Maupiti) (UTC 2003-11-19)

Аудио
Идентификатор : 1
Формат : MPEG Audio
Версия формата : Version 1
Профиль формата : Layer 3
Режим : Joint stereo
Расширение режима : MS Stereo
Идентификатор кодека : 55
Идентификатор кодека/Подсказка : MP3
Продолжительность : 43 м.
Вид битрейта : Постоянный
Битрейт : 128 Кбит/сек
Каналы : 2 канала
Частота : 44,1 КГц
Метод сжатия : С потерями
Размер потока : 40,2 Мбайт (12%)
Выравнивание : Разделение по промежуткам
Продолжительность промежутка : 40 мс. (1,00 видеокадр)
Время предзагрузки промежутка : 500 мс.

Общее
Полное имя : F:\Релиз\Prokliatyj Raj 1-48_(48)_SATRip_2007\Prokliatyj_Raj-13.avi
Формат : AVI
Формат/Информация : Audio Video Interleave
Размер файла : 348 Мбайт
Продолжительность : 43 м.
Общий поток : 1107 Кбит/сек
Библиотека кодирования : VirtualDub-MPEG2 build 24417/release

Видео
Идентификатор : 0
Формат : MPEG-4 Visual
Параметр BVOP формата : 1
Параметр QPel формата : Нет
Параметр GMC формата : Без точки перехода
Параметр матрицы формата : Default (H.263)
Режим смешивания : Сжатый битовый поток
Идентификатор кодека : DX50
Идентификатор кодека/Подсказка : DivX 5
Продолжительность : 43 м.
Битрейт : 970 Кбит/сек
Ширина : 640 пикселей
Высота : 480 пикселей
Соотношение сторон : 4:3
Частота кадров : 25,000 кадров/сек
Цветовое пространство : YUV
Субдискретизация насыщенности : 4:2:0
Битовая глубина : 8 бит
Тип развёртки : Прогрессивная
Метод сжатия : С потерями
Бит/(Пиксели*Кадры) : 0.126
Размер потока : 305 Мбайт (88%)
Библиотека кодирования : DivX 5.1.1 (Maupiti) (UTC 2003-11-19)

Аудио
Идентификатор : 1
Формат : MPEG Audio
Версия формата : Version 1
Профиль формата : Layer 3
Режим : Joint stereo
Расширение режима : MS Stereo
Идентификатор кодека : 55
Идентификатор кодека/Подсказка : MP3
Продолжительность : 43 м.
Вид битрейта : Постоянный
Битрейт : 128 Кбит/сек
Каналы : 2 канала
Частота : 44,1 КГц
Метод сжатия : С потерями
Размер потока : 40,2 Мбайт (12%)
Выравнивание : Разделение по промежуткам
Продолжительность промежутка : 40 мс. (1,00 видеокадр)
Время предзагрузки промежутка : 500 мс.

Общее
Полное имя : F:\Релиз\Prokliatyj Raj 1-48_(48)_SATRip_2007\Prokliatyj_Raj-14.avi
Формат : AVI
Формат/Информация : Audio Video Interleave
Размер файла : 348 Мбайт
Продолжительность : 43 м.
Общий поток : 1108 Кбит/сек
Библиотека кодирования : VirtualDub-MPEG2 build 24417/release

Видео
Идентификатор : 0
Формат : MPEG-4 Visual
Параметр BVOP формата : 1
Параметр QPel формата : Нет
Параметр GMC формата : Без точки перехода
Параметр матрицы формата : Default (H.263)
Режим смешивания : Сжатый битовый поток
Идентификатор кодека : DX50
Идентификатор кодека/Подсказка : DivX 5
Продолжительность : 43 м.
Битрейт : 970 Кбит/сек
Ширина : 640 пикселей
Высота : 480 пикселей
Соотношение сторон : 4:3
Частота кадров : 25,000 кадров/сек
Цветовое пространство : YUV
Субдискретизация насыщенности : 4:2:0
Битовая глубина : 8 бит
Тип развёртки : Прогрессивная
Метод сжатия : С потерями
Бит/(Пиксели*Кадры) : 0.126
Размер потока : 305 Мбайт (88%)
Библиотека кодирования : DivX 5.1.1 (Maupiti) (UTC 2003-11-19)

Аудио
Идентификатор : 1
Формат : MPEG Audio
Версия формата : Version 1
Профиль формата : Layer 3
Режим : Joint stereo
Расширение режима : MS Stereo
Идентификатор кодека : 55
Идентификатор кодека/Подсказка : MP3
Продолжительность : 43 м.
Вид битрейта : Постоянный
Битрейт : 128 Кбит/сек
Каналы : 2 канала
Частота : 44,1 КГц
Метод сжатия : С потерями
Размер потока : 40,2 Мбайт (12%)
Выравнивание : Разделение по промежуткам
Продолжительность промежутка : 40 мс. (1,00 видеокадр)
Время предзагрузки промежутка : 500 мс.

Общее
Полное имя : F:\Релиз\Prokliatyj Raj 1-48_(48)_SATRip_2007\Prokliatyj_Raj-15.avi
Формат : AVI
Формат/Информация : Audio Video Interleave
Размер файла : 348 Мбайт
Продолжительность : 43 м.
Общий поток : 1108 Кбит/сек
Библиотека кодирования : VirtualDub-MPEG2 build 24417/release

Видео
Идентификатор : 0
Формат : MPEG-4 Visual
Параметр BVOP формата : 1
Параметр QPel формата : Нет
Параметр GMC формата : Без точки перехода
Параметр матрицы формата : Default (H.263)
Режим смешивания : Сжатый битовый поток
Идентификатор кодека : DX50
Идентификатор кодека/Подсказка : DivX 5
Продолжительность : 43 м.
Битрейт : 970 Кбит/сек
Ширина : 640 пикселей
Высота : 480 пикселей
Соотношение сторон : 4:3
Частота кадров : 25,000 кадров/сек
Цветовое пространство : YUV
Субдискретизация насыщенности : 4:2:0
Битовая глубина : 8 бит
Тип развёртки : Прогрессивная
Метод сжатия : С потерями
Бит/(Пиксели*Кадры) : 0.126
Размер потока : 305 Мбайт (88%)
Библиотека кодирования : DivX 5.1.1 (Maupiti) (UTC 2003-11-19)

Аудио
Идентификатор : 1
Формат : MPEG Audio
Версия формата : Version 1
Профиль формата : Layer 3
Режим : Joint stereo
Расширение режима : MS Stereo
Идентификатор кодека : 55
Идентификатор кодека/Подсказка : MP3
Продолжительность : 43 м.
Вид битрейта : Постоянный
Битрейт : 128 Кбит/сек
Каналы : 2 канала
Частота : 44,1 КГц
Метод сжатия : С потерями
Размер потока : 40,2 Мбайт (12%)
Выравнивание : Разделение по промежуткам
Продолжительность промежутка : 40 мс. (1,00 видеокадр)
Время предзагрузки промежутка : 500 мс.

Общее
Полное имя : F:\Релиз\Prokliatyj Raj 1-48_(48)_SATRip_2007\Prokliatyj_Raj-16.avi
Формат : AVI
Формат/Информация : Audio Video Interleave
Размер файла : 349 Мбайт
Продолжительность : 43 м.
Общий поток : 1109 Кбит/сек
Библиотека кодирования : VirtualDub-MPEG2 build 24417/release

Видео
Идентификатор : 0
Формат : MPEG-4 Visual
Параметр BVOP формата : 1
Параметр QPel формата : Нет
Параметр GMC формата : Без точки перехода
Параметр матрицы формата : Default (H.263)
Режим смешивания : Сжатый битовый поток
Идентификатор кодека : DX50
Идентификатор кодека/Подсказка : DivX 5
Продолжительность : 43 м.
Битрейт : 971 Кбит/сек
Ширина : 640 пикселей
Высота : 480 пикселей
Соотношение сторон : 4:3
Частота кадров : 25,000 кадров/сек
Цветовое пространство : YUV
Субдискретизация насыщенности : 4:2:0
Битовая глубина : 8 бит
Тип развёртки : Прогрессивная
Метод сжатия : С потерями
Бит/(Пиксели*Кадры) : 0.126
Размер потока : 305 Мбайт (88%)
Библиотека кодирования : DivX 5.1.1 (Maupiti) (UTC 2003-11-19)

Аудио
Идентификатор : 1
Формат : MPEG Audio
Версия формата : Version 1
Профиль формата : Layer 3
Режим : Joint stereo
Расширение режима : MS Stereo
Идентификатор кодека : 55
Идентификатор кодека/Подсказка : MP3
Продолжительность : 43 м.
Вид битрейта : Постоянный
Битрейт : 128 Кбит/сек
Каналы : 2 канала
Частота : 44,1 КГц
Метод сжатия : С потерями
Размер потока : 40,2 Мбайт (12%)
Выравнивание : Разделение по промежуткам
Продолжительность промежутка : 40 мс. (1,00 видеокадр)
Время предзагрузки промежутка : 500 мс.

Общее
Полное имя : F:\Релиз\Prokliatyj Raj 1-48_(48)_SATRip_2007\Prokliatyj_Raj-17.avi
Формат : AVI
Формат/Информация : Audio Video Interleave
Размер файла : 345 Мбайт
Продолжительность : 43 м.
Общий поток : 1108 Кбит/сек
Библиотека кодирования : VirtualDub-MPEG2 build 24417/release

Видео
Идентификатор : 0
Формат : MPEG-4 Visual
Параметр BVOP формата : 1
Параметр QPel формата : Нет
Параметр GMC формата : Без точки перехода
Параметр матрицы формата : Default (H.263)
Режим смешивания : Сжатый битовый поток
Идентификатор кодека : DX50
Идентификатор кодека/Подсказка : DivX 5
Продолжительность : 43 м.
Битрейт : 971 Кбит/сек
Ширина : 640 пикселей
Высота : 480 пикселей
Соотношение сторон : 4:3
Частота кадров : 25,000 кадров/сек
Цветовое пространство : YUV
Субдискретизация насыщенности : 4:2:0
Битовая глубина : 8 бит
Тип развёртки : Прогрессивная
Метод сжатия : С потерями
Бит/(Пиксели*Кадры) : 0.126
Размер потока : 303 Мбайт (88%)
Библиотека кодирования : DivX 5.1.1 (Maupiti) (UTC 2003-11-19)

Аудио
Идентификатор : 1
Формат : MPEG Audio
Версия формата : Version 1
Профиль формата : Layer 3
Режим : Joint stereo
Расширение режима : MS Stereo
Идентификатор кодека : 55
Идентификатор кодека/Подсказка : MP3
Продолжительность : 43 м.
Вид битрейта : Постоянный
Битрейт : 128 Кбит/сек
Каналы : 2 канала
Частота : 44,1 КГц
Метод сжатия : С потерями
Размер потока : 39,9 Мбайт (12%)
Выравнивание : Разделение по промежуткам
Продолжительность промежутка : 40 мс. (1,00 видеокадр)
Время предзагрузки промежутка : 500 мс.

Общее
Полное имя : F:\Релиз\Prokliatyj Raj 1-48_(48)_SATRip_2007\Prokliatyj_Raj-18.avi
Формат : AVI
Формат/Информация : Audio Video Interleave
Размер файла : 348 Мбайт
Продолжительность : 43 м.
Общий поток : 1109 Кбит/сек
Библиотека кодирования : VirtualDub-MPEG2 build 24417/release

Видео
Идентификатор : 0
Формат : MPEG-4 Visual
Параметр BVOP формата : 1
Параметр QPel формата : Нет
Параметр GMC формата : Без точки перехода
Параметр матрицы формата : Default (H.263)
Режим смешивания : Сжатый битовый поток
Идентификатор кодека : DX50
Идентификатор кодека/Подсказка : DivX 5
Продолжительность : 43 м.
Битрейт : 971 Кбит/сек
Ширина : 640 пикселей
Высота : 480 пикселей
Соотношение сторон : 4:3
Частота кадров : 25,000 кадров/сек
Цветовое пространство : YUV
Субдискретизация насыщенности : 4:2:0
Битовая глубина : 8 бит
Тип развёртки : Прогрессивная
Метод сжатия : С потерями
Бит/(Пиксели*Кадры) : 0.126
Размер потока : 305 Мбайт (88%)
Библиотека кодирования : DivX 5.1.1 (Maupiti) (UTC 2003-11-19)

Аудио
Идентификатор : 1
Формат : MPEG Audio
Версия формата : Version 1
Профиль формата : Layer 3
Режим : Joint stereo
Расширение режима : MS Stereo
Идентификатор кодека : 55
Идентификатор кодека/Подсказка : MP3
Продолжительность : 43 м.
Вид битрейта : Постоянный
Битрейт : 128 Кбит/сек
Каналы : 2 канала
Частота : 44,1 КГц
Метод сжатия : С потерями
Размер потока : 40,2 Мбайт (12%)
Выравнивание : Разделение по промежуткам
Продолжительность промежутка : 40 мс. (1,00 видеокадр)
Время предзагрузки промежутка : 500 мс.

Общее
Полное имя : F:\Релиз\Prokliatyj Raj 1-48_(48)_SATRip_2007\Prokliatyj_Raj-19.avi
Формат : AVI
Формат/Информация : Audio Video Interleave
Размер файла : 347 Мбайт
Продолжительность : 43 м.
Общий поток : 1109 Кбит/сек
Библиотека кодирования : VirtualDub-MPEG2 build 24417/release

Видео
Идентификатор : 0
Формат : MPEG-4 Visual
Параметр BVOP формата : 1
Параметр QPel формата : Нет
Параметр GMC формата : Без точки перехода
Параметр матрицы формата : Default (H.263)
Режим смешивания : Сжатый битовый поток
Идентификатор кодека : DX50
Идентификатор кодека/Подсказка : DivX 5
Продолжительность : 43 м.
Битрейт : 971 Кбит/сек
Ширина : 640 пикселей
Высота : 480 пикселей
Соотношение сторон : 4:3
Частота кадров : 25,000 кадров/сек
Цветовое пространство : YUV
Субдискретизация насыщенности : 4:2:0
Битовая глубина : 8 бит
Тип развёртки : Прогрессивная
Метод сжатия : С потерями
Бит/(Пиксели*Кадры) : 0.126
Размер потока : 304 Мбайт (88%)
Библиотека кодирования : DivX 5.1.1 (Maupiti) (UTC 2003-11-19)

Аудио
Идентификатор : 1
Формат : MPEG Audio
Версия формата : Version 1
Профиль формата : Layer 3
Режим : Joint stereo
Расширение режима : MS Stereo
Идентификатор кодека : 55
Идентификатор кодека/Подсказка : MP3
Продолжительность : 43 м.
Вид битрейта : Постоянный
Битрейт : 128 Кбит/сек
Каналы : 2 канала
Частота : 44,1 КГц
Метод сжатия : С потерями
Размер потока : 40,0 Мбайт (12%)
Выравнивание : Разделение по промежуткам
Продолжительность промежутка : 40 мс. (1,00 видеокадр)
Время предзагрузки промежутка : 500 мс.

Общее
Полное имя : F:\Релиз\Prokliatyj Raj 1-48_(48)_SATRip_2007\Prokliatyj_Raj-20.avi
Формат : AVI
Формат/Информация : Audio Video Interleave
Размер файла : 348 Мбайт
Продолжительность : 43 м.
Общий поток : 1110 Кбит/сек
Библиотека кодирования : VirtualDub-MPEG2 build 24417/release

Видео
Идентификатор : 0
Формат : MPEG-4 Visual
Параметр BVOP формата : 1
Параметр QPel формата : Нет
Параметр GMC формата : Без точки перехода
Параметр матрицы формата : Default (H.263)
Режим смешивания : Сжатый битовый поток
Идентификатор кодека : DX50
Идентификатор кодека/Подсказка : DivX 5
Продолжительность : 43 м.
Битрейт : 972 Кбит/сек
Ширина : 640 пикселей
Высота : 480 пикселей
Соотношение сторон : 4:3
Частота кадров : 25,000 кадров/сек
Цветовое пространство : YUV
Субдискретизация насыщенности : 4:2:0
Битовая глубина : 8 бит
Тип развёртки : Прогрессивная
Метод сжатия : С потерями
Бит/(Пиксели*Кадры) : 0.127
Размер потока : 304 Мбайт (88%)
Библиотека кодирования : DivX 5.1.1 (Maupiti) (UTC 2003-11-19)

Аудио
Идентификатор : 1
Формат : MPEG Audio
Версия формата : Version 1
Профиль формата : Layer 3
Режим : Joint stereo
Расширение режима : MS Stereo
Идентификатор кодека : 55
Идентификатор кодека/Подсказка : MP3
Продолжительность : 43 м.
Вид битрейта : Постоянный
Битрейт : 128 Кбит/сек
Каналы : 2 канала
Частота : 44,1 КГц
Метод сжатия : С потерями
Размер потока : 40,1 Мбайт (12%)
Выравнивание : Разделение по промежуткам
Продолжительность промежутка : 40 мс. (1,00 видеокадр)
Время предзагрузки промежутка : 500 мс.

Общее
Полное имя : F:\Релиз\Prokliatyj Raj 1-48_(48)_SATRip_2007\Prokliatyj_Raj-21.avi
Формат : AVI
Формат/Информация : Audio Video Interleave
Размер файла : 347 Мбайт
Продолжительность : 43 м.
Общий поток : 1108 Кбит/сек
Библиотека кодирования : VirtualDub-MPEG2 build 24417/release

Видео
Идентификатор : 0
Формат : MPEG-4 Visual
Параметр BVOP формата : 1
Параметр QPel формата : Нет
Параметр GMC формата : Без точки перехода
Параметр матрицы формата : Default (H.263)
Режим смешивания : Сжатый битовый поток
Идентификатор кодека : DX50
Идентификатор кодека/Подсказка : DivX 5
Продолжительность : 43 м.
Битрейт : 971 Кбит/сек
Ширина : 640 пикселей
Высота : 480 пикселей
Соотношение сторон : 4:3
Частота кадров : 25,000 кадров/сек
Цветовое пространство : YUV
Субдискретизация насыщенности : 4:2:0
Битовая глубина : 8 бит
Тип развёртки : Прогрессивная
Метод сжатия : С потерями
Бит/(Пиксели*Кадры) : 0.126
Размер потока : 304 Мбайт (88%)
Библиотека кодирования : DivX 5.1.1 (Maupiti) (UTC 2003-11-19)

Аудио
Идентификатор : 1
Формат : MPEG Audio
Версия формата : Version 1
Профиль формата : Layer 3
Режим : Joint stereo
Расширение режима : MS Stereo
Идентификатор кодека : 55
Идентификатор кодека/Подсказка : MP3
Продолжительность : 43 м.
Вид битрейта : Постоянный
Битрейт : 128 Кбит/сек
Каналы : 2 канала
Частота : 44,1 КГц
Метод сжатия : С потерями
Размер потока : 40,1 Мбайт (12%)
Выравнивание : Разделение по промежуткам
Продолжительность промежутка : 40 мс. (1,00 видеокадр)
Время предзагрузки промежутка : 500 мс.

Общее
Полное имя : F:\Релиз\Prokliatyj Raj 1-48_(48)_SATRip_2007\Prokliatyj_Raj-22.avi
Формат : AVI
Формат/Информация : Audio Video Interleave
Размер файла : 348 Мбайт
Продолжительность : 43 м.
Общий поток : 1109 Кбит/сек
Библиотека кодирования : VirtualDub-MPEG2 build 24417/release

Видео
Идентификатор : 0
Формат : MPEG-4 Visual
Параметр BVOP формата : 1
Параметр QPel формата : Нет
Параметр GMC формата : Без точки перехода
Параметр матрицы формата : Default (H.263)
Режим смешивания : Сжатый битовый поток
Идентификатор кодека : DX50
Идентификатор кодека/Подсказка : DivX 5
Продолжительность : 43 м.
Битрейт : 971 Кбит/сек
Ширина : 640 пикселей
Высота : 470 пикселей
Соотношение сторон : 4:3
Частота кадров : 25,000 кадров/сек
Цветовое пространство : YUV
Субдискретизация насыщенности : 4:2:0
Битовая глубина : 8 бит
Тип развёртки : Прогрессивная
Метод сжатия : С потерями
Бит/(Пиксели*Кадры) : 0.129
Размер потока : 305 Мбайт (88%)
Библиотека кодирования : DivX 5.1.1 (Maupiti) (UTC 2003-11-19)

Аудио
Идентификатор : 1
Формат : MPEG Audio
Версия формата : Version 1
Профиль формата : Layer 3
Режим : Joint stereo
Расширение режима : MS Stereo
Идентификатор кодека : 55
Идентификатор кодека/Подсказка : MP3
Продолжительность : 43 м.
Вид битрейта : Постоянный
Битрейт : 128 Кбит/сек
Каналы : 2 канала
Частота : 44,1 КГц
Метод сжатия : С потерями
Размер потока : 40,1 Мбайт (12%)
Выравнивание : Разделение по промежуткам
Продолжительность промежутка : 40 мс. (1,00 видеокадр)
Время предзагрузки промежутка : 500 мс.

Общее
Полное имя : F:\Релиз\Prokliatyj Raj 1-48_(48)_SATRip_2007\Prokliatyj_Raj-23.avi
Формат : AVI
Формат/Информация : Audio Video Interleave
Размер файла : 348 Мбайт
Продолжительность : 43 м.
Общий поток : 1108 Кбит/сек
Библиотека кодирования : VirtualDub-MPEG2 build 24417/release

Видео
Идентификатор : 0
Формат : MPEG-4 Visual
Параметр BVOP формата : 1
Параметр QPel формата : Нет
Параметр GMC формата : Без точки перехода
Параметр матрицы формата : Default (H.263)
Режим смешивания : Сжатый битовый поток
Идентификатор кодека : DX50
Идентификатор кодека/Подсказка : DivX 5
Продолжительность : 43 м.
Битрейт : 971 Кбит/сек
Ширина : 640 пикселей
Высота : 480 пикселей
Соотношение сторон : 4:3
Частота кадров : 25,000 кадров/сек
Цветовое пространство : YUV
Субдискретизация насыщенности : 4:2:0
Битовая глубина : 8 бит
Тип развёртки : Прогрессивная
Метод сжатия : С потерями
Бит/(Пиксели*Кадры) : 0.126
Размер потока : 305 Мбайт (88%)
Библиотека кодирования : DivX 5.1.1 (Maupiti) (UTC 2003-11-19)

Аудио
Идентификатор : 1
Формат : MPEG Audio
Версия формата : Version 1
Профиль формата : Layer 3
Режим : Joint stereo
Расширение режима : MS Stereo
Идентификатор кодека : 55
Идентификатор кодека/Подсказка : MP3
Продолжительность : 43 м.
Вид битрейта : Постоянный
Битрейт : 128 Кбит/сек
Каналы : 2 канала
Частота : 44,1 КГц
Метод сжатия : С потерями
Размер потока : 40,2 Мбайт (12%)
Выравнивание : Разделение по промежуткам
Продолжительность промежутка : 40 мс. (1,00 видеокадр)
Время предзагрузки промежутка : 500 мс.

Общее
Полное имя : F:\Релиз\Prokliatyj Raj 1-48_(48)_SATRip_2007\Prokliatyj_Raj-24.avi
Формат : AVI
Формат/Информация : Audio Video Interleave
Размер файла : 348 Мбайт
Продолжительность : 43 м.
Общий поток : 1108 Кбит/сек
Библиотека кодирования : VirtualDub-MPEG2 build 24417/release

Видео
Идентификатор : 0
Формат : MPEG-4 Visual
Параметр BVOP формата : 1
Параметр QPel формата : Нет
Параметр GMC формата : Без точки перехода
Параметр матрицы формата : Default (H.263)
Режим смешивания : Сжатый битовый поток
Идентификатор кодека : DX50
Идентификатор кодека/Подсказка : DivX 5
Продолжительность : 43 м.
Битрейт : 970 Кбит/сек
Ширина : 640 пикселей
Высота : 480 пикселей
Соотношение сторон : 4:3
Частота кадров : 25,000 кадров/сек
Цветовое пространство : YUV
Субдискретизация насыщенности : 4:2:0
Битовая глубина : 8 бит
Тип развёртки : Прогрессивная
Метод сжатия : С потерями
Бит/(Пиксели*Кадры) : 0.126
Размер потока : 305 Мбайт (88%)
Библиотека кодирования : DivX 5.1.1 (Maupiti) (UTC 2003-11-19)

Аудио
Идентификатор : 1
Формат : MPEG Audio
Версия формата : Version 1
Профиль формата : Layer 3
Режим : Joint stereo
Расширение режима : MS Stereo
Идентификатор кодека : 55
Идентификатор кодека/Подсказка : MP3
Продолжительность : 43 м.
Вид битрейта : Постоянный
Битрейт : 128 Кбит/сек
Каналы : 2 канала
Частота : 44,1 КГц
Метод сжатия : С потерями
Размер потока : 40,2 Мбайт (12%)
Выравнивание : Разделение по промежуткам
Продолжительность промежутка : 40 мс. (1,00 видеокадр)
Время предзагрузки промежутка : 500 мс.

Общее
Полное имя : F:\Релиз\Prokliatyj Raj 1-48_(48)_SATRip_2007\Prokliatyj_Raj-25.avi
Формат : AVI
Формат/Информация : Audio Video Interleave
Размер файла : 348 Мбайт
Продолжительность : 43 м.
Общий поток : 1108 Кбит/сек
Библиотека кодирования : VirtualDub-MPEG2 build 24417/release

Видео
Идентификатор : 0
Формат : MPEG-4 Visual
Параметр BVOP формата : 1
Параметр QPel формата : Нет
Параметр GMC формата : Без точки перехода
Параметр матрицы формата : Default (H.263)
Режим смешивания : Сжатый битовый поток
Идентификатор кодека : DX50
Идентификатор кодека/Подсказка : DivX 5
Продолжительность : 43 м.
Битрейт : 970 Кбит/сек
Ширина : 640 пикселей
Высота : 480 пикселей
Соотношение сторон : 4:3
Частота кадров : 25,000 кадров/сек
Цветовое пространство : YUV
Субдискретизация насыщенности : 4:2:0
Битовая глубина : 8 бит
Тип развёртки : Прогрессивная
Метод сжатия : С потерями
Бит/(Пиксели*Кадры) : 0.126
Размер потока : 304 Мбайт (88%)
Библиотека кодирования : DivX 5.1.1 (Maupiti) (UTC 2003-11-19)

Аудио
Идентификатор : 1
Формат : MPEG Audio
Версия формата : Version 1
Профиль формата : Layer 3
Режим : Joint stereo
Расширение режима : MS Stereo
Идентификатор кодека : 55
Идентификатор кодека/Подсказка : MP3
Продолжительность : 43 м.
Вид битрейта : Постоянный
Битрейт : 128 Кбит/сек
Каналы : 2 канала
Частота : 44,1 КГц
Метод сжатия : С потерями
Размер потока : 40,2 Мбайт (12%)
Выравнивание : Разделение по промежуткам
Продолжительность промежутка : 40 мс. (1,00 видеокадр)
Время предзагрузки промежутка : 500 мс.

Общее
Полное имя : F:\Релиз\Prokliatyj Raj 1-48_(48)_SATRip_2007\Prokliatyj_Raj-26.avi
Формат : AVI
Формат/Информация : Audio Video Interleave
Размер файла : 348 Мбайт
Продолжительность : 43 м.
Общий поток : 1109 Кбит/сек
Библиотека кодирования : VirtualDub-MPEG2 build 24417/release

Видео
Идентификатор : 0
Формат : MPEG-4 Visual
Параметр BVOP формата : 1
Параметр QPel формата : Нет
Параметр GMC формата : Без точки перехода
Параметр матрицы формата : Default (H.263)
Режим смешивания : Сжатый битовый поток
Идентификатор кодека : DX50
Идентификатор кодека/Подсказка : DivX 5
Продолжительность : 43 м.
Битрейт : 971 Кбит/сек
Ширина : 640 пикселей
Высота : 480 пикселей
Соотношение сторон : 4:3
Частота кадров : 25,000 кадров/сек
Цветовое пространство : YUV
Субдискретизация насыщенности : 4:2:0
Битовая глубина : 8 бит
Тип развёртки : Прогрессивная
Метод сжатия : С потерями
Бит/(Пиксели*Кадры) : 0.126
Размер потока : 305 Мбайт (88%)
Библиотека кодирования : DivX 5.1.1 (Maupiti) (UTC 2003-11-19)

Аудио
Идентификатор : 1
Формат : MPEG Audio
Версия формата : Version 1
Профиль формата : Layer 3
Режим : Joint stereo
Расширение режима : MS Stereo
Идентификатор кодека : 55
Идентификатор кодека/Подсказка : MP3
Продолжительность : 43 м.
Вид битрейта : Постоянный
Битрейт : 128 Кбит/сек
Каналы : 2 канала
Частота : 44,1 КГц
Метод сжатия : С потерями
Размер потока : 40,2 Мбайт (12%)
Выравнивание : Разделение по промежуткам
Продолжительность промежутка : 40 мс. (1,00 видеокадр)
Время предзагрузки промежутка : 500 мс.

Общее
Полное имя : F:\Релиз\Prokliatyj Raj 1-48_(48)_SATRip_2007\Prokliatyj_Raj-27.avi
Формат : AVI
Формат/Информация : Audio Video Interleave
Размер файла : 348 Мбайт
Продолжительность : 43 м.
Общий поток : 1107 Кбит/сек
Библиотека кодирования : VirtualDub-MPEG2 build 24417/release

Видео
Идентификатор : 0
Формат : MPEG-4 Visual
Параметр BVOP формата : 1
Параметр QPel формата : Нет
Параметр GMC формата : Без точки перехода
Параметр матрицы формата : Default (H.263)
Режим смешивания : Сжатый битовый поток
Идентификатор кодека : DX50
Идентификатор кодека/Подсказка : DivX 5
Продолжительность : 43 м.
Битрейт : 969 Кбит/сек
Ширина : 640 пикселей
Высота : 480 пикселей
Соотношение сторон : 4:3
Частота кадров : 25,000 кадров/сек
Цветовое пространство : YUV
Субдискретизация насыщенности : 4:2:0
Битовая глубина : 8 бит
Тип развёртки : Прогрессивная
Метод сжатия : С потерями
Бит/(Пиксели*Кадры) : 0.126
Размер потока : 305 Мбайт (88%)
Библиотека кодирования : DivX 5.1.1 (Maupiti) (UTC 2003-11-19)

Аудио
Идентификатор : 1
Формат : MPEG Audio
Версия формата : Version 1
Профиль формата : Layer 3
Режим : Joint stereo
Расширение режима : MS Stereo
Идентификатор кодека : 55
Идентификатор кодека/Подсказка : MP3
Продолжительность : 43 м.
Вид битрейта : Постоянный
Битрейт : 128 Кбит/сек
Каналы : 2 канала
Частота : 44,1 КГц
Метод сжатия : С потерями
Размер потока : 40,2 Мбайт (12%)
Выравнивание : Разделение по промежуткам
Продолжительность промежутка : 40 мс. (1,00 видеокадр)
Время предзагрузки промежутка : 500 мс.

Общее
Полное имя : F:\Релиз\Prokliatyj Raj 1-48_(48)_SATRip_2007\Prokliatyj_Raj-28.avi
Формат : AVI
Формат/Информация : Audio Video Interleave
Размер файла : 348 Мбайт
Продолжительность : 43 м.
Общий поток : 1108 Кбит/сек
Библиотека кодирования : VirtualDub-MPEG2 build 24417/release

Видео
Идентификатор : 0
Формат : MPEG-4 Visual
Параметр BVOP формата : 1
Параметр QPel формата : Нет
Параметр GMC формата : Без точки перехода
Параметр матрицы формата : Default (H.263)
Режим смешивания : Сжатый битовый поток
Идентификатор кодека : DX50
Идентификатор кодека/Подсказка : DivX 5
Продолжительность : 43 м.
Битрейт : 970 Кбит/сек
Ширина : 640 пикселей
Высота : 480 пикселей
Соотношение сторон : 4:3
Частота кадров : 25,000 кадров/сек
Цветовое пространство : YUV
Субдискретизация насыщенности : 4:2:0
Битовая глубина : 8 бит
Тип развёртки : Прогрессивная
Метод сжатия : С потерями
Бит/(Пиксели*Кадры) : 0.126
Размер потока : 305 Мбайт (88%)
Библиотека кодирования : DivX 5.1.1 (Maupiti) (UTC 2003-11-19)

Аудио
Идентификатор : 1
Формат : MPEG Audio
Версия формата : Version 1
Профиль формата : Layer 3
Режим : Joint stereo
Расширение режима : MS Stereo
Идентификатор кодека : 55
Идентификатор кодека/Подсказка : MP3
Продолжительность : 43 м.
Вид битрейта : Постоянный
Битрейт : 128 Кбит/сек
Каналы : 2 канала
Частота : 44,1 КГц
Метод сжатия : С потерями
Размер потока : 40,2 Мбайт (12%)
Выравнивание : Разделение по промежуткам
Продолжительность промежутка : 40 мс. (1,00 видеокадр)
Время предзагрузки промежутка : 500 мс.

Общее
Полное имя : F:\Релиз\Prokliatyj Raj 1-48_(48)_SATRip_2007\Prokliatyj_Raj-29.avi
Формат : AVI
Формат/Информация : Audio Video Interleave
Размер файла : 345 Мбайт
Продолжительность : 43 м.
Общий поток : 1108 Кбит/сек
Библиотека кодирования : VirtualDub-MPEG2 build 24417/release

Видео
Идентификатор : 0
Формат : MPEG-4 Visual
Параметр BVOP формата : 1
Параметр QPel формата : Нет
Параметр GMC формата : Без точки перехода
Параметр матрицы формата : Default (H.263)
Режим смешивания : Сжатый битовый поток
Идентификатор кодека : DX50
Идентификатор кодека/Подсказка : DivX 5
Продолжительность : 43 м.
Битрейт : 971 Кбит/сек
Ширина : 640 пикселей
Высота : 480 пикселей
Соотношение сторон : 4:3
Частота кадров : 25,000 кадров/сек
Цветовое пространство : YUV
Субдискретизация насыщенности : 4:2:0
Битовая глубина : 8 бит
Тип развёртки : Прогрессивная
Метод сжатия : С потерями
Бит/(Пиксели*Кадры) : 0.126
Размер потока : 302 Мбайт (88%)
Библиотека кодирования : DivX 5.1.1 (Maupiti) (UTC 2003-11-19)

Аудио
Идентификатор : 1
Формат : MPEG Audio
Версия формата : Version 1
Профиль формата : Layer 3
Режим : Joint stereo
Расширение режима : MS Stereo
Идентификатор кодека : 55
Идентификатор кодека/Подсказка : MP3
Продолжительность : 43 м.
Вид битрейта : Постоянный
Битрейт : 128 Кбит/сек
Каналы : 2 канала
Частота : 44,1 КГц
Метод сжатия : С потерями
Размер потока : 39,9 Мбайт (12%)
Выравнивание : Разделение по промежуткам
Продолжительность промежутка : 40 мс. (1,00 видеокадр)
Время предзагрузки промежутка : 500 мс.

Общее
Полное имя : F:\Релиз\Prokliatyj Raj 1-48_(48)_SATRip_2007\Prokliatyj_Raj-30.avi
Формат : AVI
Формат/Информация : Audio Video Interleave
Размер файла : 348 Мбайт
Продолжительность : 43 м.
Общий поток : 1109 Кбит/сек
Библиотека кодирования : VirtualDub-MPEG2 build 24417/release

Видео
Идентификатор : 0
Формат : MPEG-4 Visual
Параметр BVOP формата : 1
Параметр QPel формата : Нет
Параметр GMC формата : Без точки перехода
Параметр матрицы формата : Default (H.263)
Режим смешивания : Сжатый битовый поток
Идентификатор кодека : DX50
Идентификатор кодека/Подсказка : DivX 5
Продолжительность : 43 м.
Битрейт : 971 Кбит/сек
Ширина : 640 пикселей
Высота : 480 пикселей
Соотношение сторон : 4:3
Частота кадров : 25,000 кадров/сек
Цветовое пространство : YUV
Субдискретизация насыщенности : 4:2:0
Битовая глубина : 8 бит
Тип развёртки : Прогрессивная
Метод сжатия : С потерями
Бит/(Пиксели*Кадры) : 0.126
Размер потока : 305 Мбайт (88%)
Библиотека кодирования : DivX 5.1.1 (Maupiti) (UTC 2003-11-19)

Аудио
Идентификатор : 1
Формат : MPEG Audio
Версия формата : Version 1
Профиль формата : Layer 3
Режим : Joint stereo
Расширение режима : MS Stereo
Идентификатор кодека : 55
Идентификатор кодека/Подсказка : MP3
Продолжительность : 43 м.
Вид битрейта : Постоянный
Битрейт : 128 Кбит/сек
Каналы : 2 канала
Частота : 44,1 КГц
Метод сжатия : С потерями
Размер потока : 40,2 Мбайт (12%)
Выравнивание : Разделение по промежуткам
Продолжительность промежутка : 40 мс. (1,00 видеокадр)
Время предзагрузки промежутка : 500 мс.

Общее
Полное имя : F:\Релиз\Prokliatyj Raj 1-48_(48)_SATRip_2007\Prokliatyj_Raj-31.avi
Формат : AVI
Формат/Информация : Audio Video Interleave
Размер файла : 349 Мбайт
Продолжительность : 43 м.
Общий поток : 1108 Кбит/сек
Библиотека кодирования : VirtualDub-MPEG2 build 24417/release

Видео
Идентификатор : 0
Формат : MPEG-4 Visual
Параметр BVOP формата : 1
Параметр QPel формата : Нет
Параметр GMC формата : Без точки перехода
Параметр матрицы формата : Default (H.263)
Режим смешивания : Сжатый битовый поток
Идентификатор кодека : DX50
Идентификатор кодека/Подсказка : DivX 5
Продолжительность : 43 м.
Битрейт : 970 Кбит/сек
Ширина : 640 пикселей
Высота : 480 пикселей
Соотношение сторон : 4:3
Частота кадров : 25,000 кадров/сек
Цветовое пространство : YUV
Субдискретизация насыщенности : 4:2:0
Битовая глубина : 8 бит
Тип развёртки : Прогрессивная
Метод сжатия : С потерями
Бит/(Пиксели*Кадры) : 0.126
Размер потока : 305 Мбайт (88%)
Библиотека кодирования : DivX 5.1.1 (Maupiti) (UTC 2003-11-19)

Аудио
Идентификатор : 1
Формат : MPEG Audio
Версия формата : Version 1
Профиль формата : Layer 3
Режим : Joint stereo
Расширение режима : MS Stereo
Идентификатор кодека : 55
Идентификатор кодека/Подсказка : MP3
Продолжительность : 43 м.
Вид битрейта : Постоянный
Битрейт : 128 Кбит/сек
Каналы : 2 канала
Частота : 44,1 КГц
Метод сжатия : С потерями
Размер потока : 40,3 Мбайт (12%)
Выравнивание : Разделение по промежуткам
Продолжительность промежутка : 40 мс. (1,00 видеокадр)
Время предзагрузки промежутка : 500 мс.

Общее
Полное имя : F:\Релиз\Prokliatyj Raj 1-48_(48)_SATRip_2007\Prokliatyj_Raj-32.avi
Формат : AVI
Формат/Информация : Audio Video Interleave
Размер файла : 348 Мбайт
Продолжительность : 43 м.
Общий поток : 1108 Кбит/сек
Библиотека кодирования : VirtualDub-MPEG2 build 24417/release

Видео
Идентификатор : 0
Формат : MPEG-4 Visual
Параметр BVOP формата : 1
Параметр QPel формата : Нет
Параметр GMC формата : Без точки перехода
Параметр матрицы формата : Default (H.263)
Режим смешивания : Сжатый битовый поток
Идентификатор кодека : DX50
Идентификатор кодека/Подсказка : DivX 5
Продолжительность : 43 м.
Битрейт : 971 Кбит/сек
Ширина : 640 пикселей
Высота : 480 пикселей
Соотношение сторон : 4:3
Частота кадров : 25,000 кадров/сек
Цветовое пространство : YUV
Субдискретизация насыщенности : 4:2:0
Битовая глубина : 8 бит
Тип развёртки : Прогрессивная
Метод сжатия : С потерями
Бит/(Пиксели*Кадры) : 0.126
Размер потока : 305 Мбайт (88%)
Библиотека кодирования : DivX 5.1.1 (Maupiti) (UTC 2003-11-19)

Аудио
Идентификатор : 1
Формат : MPEG Audio
Версия формата : Version 1
Профиль формата : Layer 3
Режим : Joint stereo
Расширение режима : MS Stereo
Идентификатор кодека : 55
Идентификатор кодека/Подсказка : MP3
Продолжительность : 43 м.
Вид битрейта : Постоянный
Битрейт : 128 Кбит/сек
Каналы : 2 канала
Частота : 44,1 КГц
Метод сжатия : С потерями
Размер потока : 40,2 Мбайт (12%)
Выравнивание : Разделение по промежуткам
Продолжительность промежутка : 40 мс. (1,00 видеокадр)
Время предзагрузки промежутка : 500 мс.

Общее
Полное имя : F:\Релиз\Prokliatyj Raj 1-48_(48)_SATRip_2007\Prokliatyj_Raj-33.avi
Формат : AVI
Формат/Информация : Audio Video Interleave
Размер файла : 339 Мбайт
Продолжительность : 42 м.
Общий поток : 1109 Кбит/сек
Библиотека кодирования : VirtualDub-MPEG2 build 24417/release

Видео
Идентификатор : 0
Формат : MPEG-4 Visual
Параметр BVOP формата : 1
Параметр QPel формата : Нет
Параметр GMC формата : Без точки перехода
Параметр матрицы формата : Default (H.263)
Режим смешивания : Сжатый битовый поток
Идентификатор кодека : DX50
Идентификатор кодека/Подсказка : DivX 5
Продолжительность : 42 м.
Битрейт : 971 Кбит/сек
Ширина : 640 пикселей
Высота : 480 пикселей
Соотношение сторон : 4:3
Частота кадров : 25,000 кадров/сек
Цветовое пространство : YUV
Субдискретизация насыщенности : 4:2:0
Битовая глубина : 8 бит
Тип развёртки : Прогрессивная
Метод сжатия : С потерями
Бит/(Пиксели*Кадры) : 0.126
Размер потока : 297 Мбайт (88%)
Библиотека кодирования : DivX 5.1.1 (Maupiti) (UTC 2003-11-19)

Аудио
Идентификатор : 1
Формат : MPEG Audio
Версия формата : Version 1
Профиль формата : Layer 3
Режим : Joint stereo
Расширение режима : MS Stereo
Идентификатор кодека : 55
Идентификатор кодека/Подсказка : MP3
Продолжительность : 42 м.
Вид битрейта : Постоянный
Битрейт : 128 Кбит/сек
Каналы : 2 канала
Частота : 44,1 КГц
Метод сжатия : С потерями
Размер потока : 39,1 Мбайт (12%)
Выравнивание : Разделение по промежуткам
Продолжительность промежутка : 40 мс. (1,00 видеокадр)
Время предзагрузки промежутка : 500 мс.

Общее
Полное имя : F:\Релиз\Prokliatyj Raj 1-48_(48)_SATRip_2007\Prokliatyj_Raj-34.avi
Формат : AVI
Формат/Информация : Audio Video Interleave
Размер файла : 348 Мбайт
Продолжительность : 43 м.
Общий поток : 1108 Кбит/сек
Библиотека кодирования : VirtualDub-MPEG2 build 24417/release

Видео
Идентификатор : 0
Формат : MPEG-4 Visual
Параметр BVOP формата : 1
Параметр QPel формата : Нет
Параметр GMC формата : Без точки перехода
Параметр матрицы формата : Default (H.263)
Режим смешивания : Сжатый битовый поток
Идентификатор кодека : DX50
Идентификатор кодека/Подсказка : DivX 5
Продолжительность : 43 м.
Битрейт : 971 Кбит/сек
Ширина : 640 пикселей
Высота : 480 пикселей
Соотношение сторон : 4:3
Частота кадров : 25,000 кадров/сек
Цветовое пространство : YUV
Субдискретизация насыщенности : 4:2:0
Битовая глубина : 8 бит
Тип развёртки : Прогрессивная
Метод сжатия : С потерями
Бит/(Пиксели*Кадры) : 0.126
Размер потока : 304 Мбайт (88%)
Библиотека кодирования : DivX 5.1.1 (Maupiti) (UTC 2003-11-19)

Аудио
Идентификатор : 1
Формат : MPEG Audio
Версия формата : Version 1
Профиль формата : Layer 3
Режим : Joint stereo
Расширение режима : MS Stereo
Идентификатор кодека : 55
Идентификатор кодека/Подсказка : MP3
Продолжительность : 43 м.
Вид битрейта : Постоянный
Битрейт : 128 Кбит/сек
Каналы : 2 канала
Частота : 44,1 КГц
Метод сжатия : С потерями
Размер потока : 40,2 Мбайт (12%)
Выравнивание : Разделение по промежуткам
Продолжительность промежутка : 40 мс. (1,00 видеокадр)
Время предзагрузки промежутка : 500 мс.

Общее
Полное имя : F:\Релиз\Prokliatyj Raj 1-48_(48)_SATRip_2007\Prokliatyj_Raj-35.avi
Формат : AVI
Формат/Информация : Audio Video Interleave
Размер файла : 348 Мбайт
Продолжительность : 43 м.
Общий поток : 1108 Кбит/сек
Библиотека кодирования : VirtualDub-MPEG2 build 24417/release

Видео
Идентификатор : 0
Формат : MPEG-4 Visual
Параметр BVOP формата : 1
Параметр QPel формата : Нет
Параметр GMC формата : Без точки перехода
Параметр матрицы формата : Default (H.263)
Режим смешивания : Сжатый битовый поток
Идентификатор кодека : DX50
Идентификатор кодека/Подсказка : DivX 5
Продолжительность : 43 м.
Битрейт : 971 Кбит/сек
Ширина : 640 пикселей
Высота : 480 пикселей
Соотношение сторон : 4:3
Частота кадров : 25,000 кадров/сек
Цветовое пространство : YUV
Субдискретизация насыщенности : 4:2:0
Битовая глубина : 8 бит
Тип развёртки : Прогрессивная
Метод сжатия : С потерями
Бит/(Пиксели*Кадры) : 0.126
Размер потока : 305 Мбайт (88%)
Библиотека кодирования : DivX 5.1.1 (Maupiti) (UTC 2003-11-19)

Аудио
Идентификатор : 1
Формат : MPEG Audio
Версия формата : Version 1
Профиль формата : Layer 3
Режим : Joint stereo
Идентификатор кодека : 55
Идентификатор кодека/Подсказка : MP3
Продолжительность : 43 м.
Вид битрейта : Постоянный
Битрейт : 128 Кбит/сек
Каналы : 2 канала
Частота : 44,1 КГц
Метод сжатия : С потерями
Размер потока : 40,2 Мбайт (12%)
Выравнивание : Разделение по промежуткам
Продолжительность промежутка : 40 мс. (1,00 видеокадр)
Время предзагрузки промежутка : 500 мс.

Общее
Полное имя : F:\Релиз\Prokliatyj Raj 1-48_(48)_SATRip_2007\Prokliatyj_Raj-36.avi
Формат : AVI
Формат/Информация : Audio Video Interleave
Размер файла : 349 Мбайт
Продолжительность : 43 м.
Общий поток : 1109 Кбит/сек
Библиотека кодирования : VirtualDub-MPEG2 build 24417/release

Видео
Идентификатор : 0
Формат : MPEG-4 Visual
Параметр BVOP формата : 1
Параметр QPel формата : Нет
Параметр GMC формата : Без точки перехода
Параметр матрицы формата : Default (H.263)
Режим смешивания : Сжатый битовый поток
Идентификатор кодека : DX50
Идентификатор кодека/Подсказка : DivX 5
Продолжительность : 43 м.
Битрейт : 971 Кбит/сек
Ширина : 640 пикселей
Высота : 480 пикселей
Соотношение сторон : 4:3
Частота кадров : 25,000 кадров/сек
Цветовое пространство : YUV
Субдискретизация насыщенности : 4:2:0
Битовая глубина : 8 бит
Тип развёртки : Прогрессивная
Метод сжатия : С потерями
Бит/(Пиксели*Кадры) : 0.126
Размер потока : 305 Мбайт (88%)
Библиотека кодирования : DivX 5.1.1 (Maupiti) (UTC 2003-11-19)

Аудио
Идентификатор : 1
Формат : MPEG Audio
Версия формата : Version 1
Профиль формата : Layer 3
Режим : Joint stereo
Расширение режима : MS Stereo
Идентификатор кодека : 55
Идентификатор кодека/Подсказка : MP3
Продолжительность : 43 м.
Вид битрейта : Постоянный
Битрейт : 128 Кбит/сек
Каналы : 2 канала
Частота : 44,1 КГц
Метод сжатия : С потерями
Размер потока : 40,2 Мбайт (12%)
Выравнивание : Разделение по промежуткам
Продолжительность промежутка : 40 мс. (1,00 видеокадр)
Время предзагрузки промежутка : 500 мс.

Общее
Полное имя : F:\Релиз\Prokliatyj Raj 1-48_(48)_SATRip_2007\Prokliatyj_Raj-37.avi
Формат : AVI
Формат/Информация : Audio Video Interleave
Размер файла : 348 Мбайт
Продолжительность : 43 м.
Общий поток : 1109 Кбит/сек
Библиотека кодирования : VirtualDub-MPEG2 build 24417/release

Видео
Идентификатор : 0
Формат : MPEG-4 Visual
Параметр BVOP формата : 1
Параметр QPel формата : Нет
Параметр GMC формата : Без точки перехода
Параметр матрицы формата : Default (H.263)
Режим смешивания : Сжатый битовый поток
Идентификатор кодека : DX50
Идентификатор кодека/Подсказка : DivX 5
Продолжительность : 43 м.
Битрейт : 971 Кбит/сек
Ширина : 640 пикселей
Высота : 480 пикселей
Соотношение сторон : 4:3
Частота кадров : 25,000 кадров/сек
Цветовое пространство : YUV
Субдискретизация насыщенности : 4:2:0
Битовая глубина : 8 бит
Тип развёртки : Прогрессивная
Метод сжатия : С потерями
Бит/(Пиксели*Кадры) : 0.126
Размер потока : 305 Мбайт (88%)
Библиотека кодирования : DivX 5.1.1 (Maupiti) (UTC 2003-11-19)

Аудио
Идентификатор : 1
Формат : MPEG Audio
Версия формата : Version 1
Профиль формата : Layer 3
Режим : Joint stereo
Расширение режима : MS Stereo
Идентификатор кодека : 55
Идентификатор кодека/Подсказка : MP3
Продолжительность : 43 м.
Вид битрейта : Постоянный
Битрейт : 128 Кбит/сек
Каналы : 2 канала
Частота : 44,1 КГц
Метод сжатия : С потерями
Размер потока : 40,2 Мбайт (12%)
Выравнивание : Разделение по промежуткам
Продолжительность промежутка : 40 мс. (1,00 видеокадр)
Время предзагрузки промежутка : 500 мс.

Общее
Полное имя : F:\Релиз\Prokliatyj Raj 1-48_(48)_SATRip_2007\Prokliatyj_Raj-38.avi
Формат : AVI
Формат/Информация : Audio Video Interleave
Размер файла : 347 Мбайт
Продолжительность : 43 м.
Общий поток : 1108 Кбит/сек
Библиотека кодирования : VirtualDub-MPEG2 build 24417/release

Видео
Идентификатор : 0
Формат : MPEG-4 Visual
Параметр BVOP формата : 1
Параметр QPel формата : Нет
Параметр GMC формата : Без точки перехода
Параметр матрицы формата : Default (H.263)
Режим смешивания : Сжатый битовый поток
Идентификатор кодека : DX50
Идентификатор кодека/Подсказка : DivX 5
Продолжительность : 43 м.
Битрейт : 971 Кбит/сек
Ширина : 640 пикселей
Высота : 480 пикселей
Соотношение сторон : 4:3
Частота кадров : 25,000 кадров/сек
Цветовое пространство : YUV
Субдискретизация насыщенности : 4:2:0
Битовая глубина : 8 бит
Тип развёртки : Прогрессивная
Метод сжатия : С потерями
Бит/(Пиксели*Кадры) : 0.126
Размер потока : 304 Мбайт (88%)
Библиотека кодирования : DivX 5.1.1 (Maupiti) (UTC 2003-11-19)

Аудио
Идентификатор : 1
Формат : MPEG Audio
Версия формата : Version 1
Профиль формата : Layer 3
Режим : Joint stereo
Расширение режима : MS Stereo
Идентификатор кодека : 55
Идентификатор кодека/Подсказка : MP3
Продолжительность : 43 м.
Вид битрейта : Постоянный
Битрейт : 128 Кбит/сек
Каналы : 2 канала
Частота : 44,1 КГц
Метод сжатия : С потерями
Размер потока : 40,1 Мбайт (12%)
Выравнивание : Разделение по промежуткам
Продолжительность промежутка : 40 мс. (1,00 видеокадр)
Время предзагрузки промежутка : 500 мс.

Общее
Полное имя : F:\Релиз\Prokliatyj Raj 1-48_(48)_SATRip_2007\Prokliatyj_Raj-39.avi
Формат : AVI
Формат/Информация : Audio Video Interleave
Размер файла : 350 Мбайт
Продолжительность : 44 м.
Общий поток : 1109 Кбит/сек
Библиотека кодирования : VirtualDub-MPEG2 build 24417/release

Видео
Идентификатор : 0
Формат : MPEG-4 Visual
Параметр BVOP формата : 1
Параметр QPel формата : Нет
Параметр GMC формата : Без точки перехода
Параметр матрицы формата : Default (H.263)
Режим смешивания : Сжатый битовый поток
Идентификатор кодека : DX50
Идентификатор кодека/Подсказка : DivX 5
Продолжительность : 44 м.
Битрейт : 971 Кбит/сек
Ширина : 640 пикселей
Высота : 480 пикселей
Соотношение сторон : 4:3
Частота кадров : 25,000 кадров/сек
Цветовое пространство : YUV
Субдискретизация насыщенности : 4:2:0
Битовая глубина : 8 бит
Тип развёртки : Прогрессивная
Метод сжатия : С потерями
Бит/(Пиксели*Кадры) : 0.126
Размер потока : 307 Мбайт (88%)
Библиотека кодирования : DivX 5.1.1 (Maupiti) (UTC 2003-11-19)

Аудио
Идентификатор : 1
Формат : MPEG Audio
Версия формата : Version 1
Профиль формата : Layer 3
Режим : Joint stereo
Расширение режима : MS Stereo
Идентификатор кодека : 55
Идентификатор кодека/Подсказка : MP3
Продолжительность : 44 м.
Вид битрейта : Постоянный
Битрейт : 128 Кбит/сек
Каналы : 2 канала
Частота : 44,1 КГц
Метод сжатия : С потерями
Размер потока : 40,4 Мбайт (12%)
Выравнивание : Разделение по промежуткам
Продолжительность промежутка : 40 мс. (1,00 видеокадр)
Время предзагрузки промежутка : 500 мс.

Общее
Полное имя : F:\Релиз\Prokliatyj Raj 1-48_(48)_SATRip_2007\Prokliatyj_Raj-40.avi
Формат : AVI
Формат/Информация : Audio Video Interleave
Размер файла : 348 Мбайт
Продолжительность : 43 м.
Общий поток : 1108 Кбит/сек
Библиотека кодирования : VirtualDub-MPEG2 build 24417/release

Видео
Идентификатор : 0
Формат : MPEG-4 Visual
Параметр BVOP формата : 1
Параметр QPel формата : Нет
Параметр GMC формата : Без точки перехода
Параметр матрицы формата : Default (H.263)
Режим смешивания : Сжатый битовый поток
Идентификатор кодека : DX50
Идентификатор кодека/Подсказка : DivX 5
Продолжительность : 43 м.
Битрейт : 971 Кбит/сек
Ширина : 640 пикселей
Высота : 480 пикселей
Соотношение сторон : 4:3
Частота кадров : 25,000 кадров/сек
Цветовое пространство : YUV
Субдискретизация насыщенности : 4:2:0
Битовая глубина : 8 бит
Тип развёртки : Прогрессивная
Метод сжатия : С потерями
Бит/(Пиксели*Кадры) : 0.126
Размер потока : 305 Мбайт (88%)
Библиотека кодирования : DivX 5.1.1 (Maupiti) (UTC 2003-11-19)

Аудио
Идентификатор : 1
Формат : MPEG Audio
Версия формата : Version 1
Профиль формата : Layer 3
Режим : Joint stereo
Расширение режима : MS Stereo
Идентификатор кодека : 55
Идентификатор кодека/Подсказка : MP3
Продолжительность : 43 м.
Вид битрейта : Постоянный
Битрейт : 128 Кбит/сек
Каналы : 2 канала
Частота : 44,1 КГц
Метод сжатия : С потерями
Размер потока : 40,2 Мбайт (12%)
Выравнивание : Разделение по промежуткам
Продолжительность промежутка : 40 мс. (1,00 видеокадр)
Время предзагрузки промежутка : 500 мс.

Общее
Полное имя : F:\Релиз\Prokliatyj Raj 1-48_(48)_SATRip_2007\Prokliatyj_Raj-41.avi
Формат : AVI
Формат/Информация : Audio Video Interleave
Размер файла : 348 Мбайт
Продолжительность : 43 м.
Общий поток : 1109 Кбит/сек
Библиотека кодирования : VirtualDub-MPEG2 build 24417/release

Видео
Идентификатор : 0
Формат : MPEG-4 Visual
Параметр BVOP формата : 1
Параметр QPel формата : Нет
Параметр GMC формата : Без точки перехода
Параметр матрицы формата : Default (H.263)
Режим смешивания : Сжатый битовый поток
Идентификатор кодека : DX50
Идентификатор кодека/Подсказка : DivX 5
Продолжительность : 43 м.
Битрейт : 971 Кбит/сек
Ширина : 640 пикселей
Высота : 480 пикселей
Соотношение сторон : 4:3
Частота кадров : 25,000 кадров/сек
Цветовое пространство : YUV
Субдискретизация насыщенности : 4:2:0
Битовая глубина : 8 бит
Тип развёртки : Прогрессивная
Метод сжатия : С потерями
Бит/(Пиксели*Кадры) : 0.126
Размер потока : 305 Мбайт (88%)
Библиотека кодирования : DivX 5.1.1 (Maupiti) (UTC 2003-11-19)

Аудио
Идентификатор : 1
Формат : MPEG Audio
Версия формата : Version 1
Профиль формата : Layer 3
Режим : Joint stereo
Расширение режима : MS Stereo
Идентификатор кодека : 55
Идентификатор кодека/Подсказка : MP3
Продолжительность : 43 м.
Вид битрейта : Постоянный
Битрейт : 128 Кбит/сек
Каналы : 2 канала
Частота : 44,1 КГц
Метод сжатия : С потерями
Размер потока : 40,2 Мбайт (12%)
Выравнивание : Разделение по промежуткам
Продолжительность промежутка : 40 мс. (1,00 видеокадр)
Время предзагрузки промежутка : 500 мс.

Общее
Полное имя : F:\Релиз\Prokliatyj Raj 1-48_(48)_SATRip_2007\Prokliatyj_Raj-42.avi
Формат : AVI
Формат/Информация : Audio Video Interleave
Размер файла : 349 Мбайт
Продолжительность : 44 м.
Общий поток : 1109 Кбит/сек
Библиотека кодирования : VirtualDub-MPEG2 build 24417/release

Видео
Идентификатор : 0
Формат : MPEG-4 Visual
Параметр BVOP формата : 1
Параметр QPel формата : Нет
Параметр GMC формата : Без точки перехода
Параметр матрицы формата : Default (H.263)
Режим смешивания : Сжатый битовый поток
Идентификатор кодека : DX50
Идентификатор кодека/Подсказка : DivX 5
Продолжительность : 44 м.
Битрейт : 971 Кбит/сек
Ширина : 640 пикселей
Высота : 480 пикселей
Соотношение сторон : 4:3
Частота кадров : 25,000 кадров/сек
Цветовое пространство : YUV
Субдискретизация насыщенности : 4:2:0
Битовая глубина : 8 бит
Тип развёртки : Прогрессивная
Метод сжатия : С потерями
Бит/(Пиксели*Кадры) : 0.126
Размер потока : 306 Мбайт (88%)
Библиотека кодирования : DivX 5.1.1 (Maupiti) (UTC 2003-11-19)

Аудио
Идентификатор : 1
Формат : MPEG Audio
Версия формата : Version 1
Профиль формата : Layer 3
Режим : Joint stereo
Расширение режима : MS Stereo
Идентификатор кодека : 55
Идентификатор кодека/Подсказка : MP3
Продолжительность : 43 м.
Вид битрейта : Постоянный
Битрейт : 128 Кбит/сек
Каналы : 2 канала
Частота : 44,1 КГц
Метод сжатия : С потерями
Размер потока : 40,3 Мбайт (12%)
Выравнивание : Разделение по промежуткам
Продолжительность промежутка : 40 мс. (1,00 видеокадр)
Время предзагрузки промежутка : 500 мс.

Общее
Полное имя : F:\Релиз\Prokliatyj Raj 1-48_(48)_SATRip_2007\Prokliatyj_Raj-43.avi
Формат : AVI
Формат/Информация : Audio Video Interleave
Размер файла : 348 Мбайт
Продолжительность : 43 м.
Общий поток : 1108 Кбит/сек
Библиотека кодирования : VirtualDub-MPEG2 build 24417/release

Видео
Идентификатор : 0
Формат : MPEG-4 Visual
Параметр BVOP формата : 1
Параметр QPel формата : Нет
Параметр GMC формата : Без точки перехода
Параметр матрицы формата : Default (H.263)
Режим смешивания : Сжатый битовый поток
Идентификатор кодека : DX50
Идентификатор кодека/Подсказка : DivX 5
Продолжительность : 43 м.
Битрейт : 970 Кбит/сек
Ширина : 640 пикселей
Высота : 480 пикселей
Соотношение сторон : 4:3
Частота кадров : 25,000 кадров/сек
Цветовое пространство : YUV
Субдискретизация насыщенности : 4:2:0
Битовая глубина : 8 бит
Тип развёртки : Прогрессивная
Метод сжатия : С потерями
Бит/(Пиксели*Кадры) : 0.126
Размер потока : 305 Мбайт (88%)
Библиотека кодирования : DivX 5.1.1 (Maupiti) (UTC 2003-11-19)

Аудио
Идентификатор : 1
Формат : MPEG Audio
Версия формата : Version 1
Профиль формата : Layer 3
Режим : Joint stereo
Расширение режима : MS Stereo
Идентификатор кодека : 55
Идентификатор кодека/Подсказка : MP3
Продолжительность : 43 м.
Вид битрейта : Постоянный
Битрейт : 128 Кбит/сек
Каналы : 2 канала
Частота : 44,1 КГц
Метод сжатия : С потерями
Размер потока : 40,2 Мбайт (12%)
Выравнивание : Разделение по промежуткам
Продолжительность промежутка : 40 мс. (1,00 видеокадр)
Время предзагрузки промежутка : 500 мс.

Общее
Полное имя : F:\Релиз\Prokliatyj Raj 1-48_(48)_SATRip_2007\Prokliatyj_Raj-44.avi
Формат : AVI
Формат/Информация : Audio Video Interleave
Размер файла : 349 Мбайт
Продолжительность : 44 м.
Общий поток : 1109 Кбит/сек
Библиотека кодирования : VirtualDub-MPEG2 build 24417/release

Видео
Идентификатор : 0
Формат : MPEG-4 Visual
Параметр BVOP формата : 1
Параметр QPel формата : Нет
Параметр GMC формата : Без точки перехода
Параметр матрицы формата : Default (H.263)
Режим смешивания : Сжатый битовый поток
Идентификатор кодека : DX50
Идентификатор кодека/Подсказка : DivX 5
Продолжительность : 44 м.
Битрейт : 972 Кбит/сек
Ширина : 640 пикселей
Высота : 480 пикселей
Соотношение сторон : 4:3
Частота кадров : 25,000 кадров/сек
Цветовое пространство : YUV
Субдискретизация насыщенности : 4:2:0
Битовая глубина : 8 бит
Тип развёртки : Прогрессивная
Метод сжатия : С потерями
Бит/(Пиксели*Кадры) : 0.127
Размер потока : 306 Мбайт (88%)
Библиотека кодирования : DivX 5.1.1 (Maupiti) (UTC 2003-11-19)

Аудио
Идентификатор : 1
Формат : MPEG Audio
Версия формата : Version 1
Профиль формата : Layer 3
Режим : Joint stereo
Расширение режима : MS Stereo
Идентификатор кодека : 55
Идентификатор кодека/Подсказка : MP3
Продолжительность : 44 м.
Вид битрейта : Постоянный
Битрейт : 128 Кбит/сек
Каналы : 2 канала
Частота : 44,1 КГц
Метод сжатия : С потерями
Размер потока : 40,3 Мбайт (12%)
Выравнивание : Разделение по промежуткам
Продолжительность промежутка : 40 мс. (1,00 видеокадр)
Время предзагрузки промежутка : 500 мс.

Общее
Полное имя : F:\Релиз\Prokliatyj Raj 1-48_(48)_SATRip_2007\Prokliatyj_Raj-45.avi
Формат : AVI
Формат/Информация : Audio Video Interleave
Размер файла : 349 Мбайт
Продолжительность : 43 м.
Общий поток : 1110 Кбит/сек
Библиотека кодирования : VirtualDub-MPEG2 build 24417/release

Видео
Идентификатор : 0
Формат : MPEG-4 Visual
Параметр BVOP формата : 1
Параметр QPel формата : Нет
Параметр GMC формата : Без точки перехода
Параметр матрицы формата : Default (H.263)
Режим смешивания : Сжатый битовый поток
Идентификатор кодека : DX50
Идентификатор кодека/Подсказка : DivX 5
Продолжительность : 43 м.
Битрейт : 972 Кбит/сек
Ширина : 640 пикселей
Высота : 480 пикселей
Соотношение сторон : 4:3
Частота кадров : 25,000 кадров/сек
Цветовое пространство : YUV
Субдискретизация насыщенности : 4:2:0
Битовая глубина : 8 бит
Тип развёртки : Прогрессивная
Метод сжатия : С потерями
Бит/(Пиксели*Кадры) : 0.127
Размер потока : 305 Мбайт (88%)
Библиотека кодирования : DivX 5.1.1 (Maupiti) (UTC 2003-11-19)

Аудио
Идентификатор : 1
Формат : MPEG Audio
Версия формата : Version 1
Профиль формата : Layer 3
Режим : Joint stereo
Расширение режима : MS Stereo
Идентификатор кодека : 55
Идентификатор кодека/Подсказка : MP3
Продолжительность : 43 м.
Вид битрейта : Постоянный
Битрейт : 128 Кбит/сек
Каналы : 2 канала
Частота : 44,1 КГц
Метод сжатия : С потерями
Размер потока : 40,2 Мбайт (12%)
Выравнивание : Разделение по промежуткам
Продолжительность промежутка : 40 мс. (1,00 видеокадр)
Время предзагрузки промежутка : 500 мс.

Общее
Полное имя : F:\Релиз\Prokliatyj Raj 1-48_(48)_SATRip_2007\Prokliatyj_Raj-46.avi
Формат : AVI
Формат/Информация : Audio Video Interleave
Размер файла : 349 Мбайт
Продолжительность : 43 м.
Общий поток : 1109 Кбит/сек
Библиотека кодирования : VirtualDub-MPEG2 build 24417/release

Видео
Идентификатор : 0
Формат : MPEG-4 Visual
Параметр BVOP формата : 1
Параметр QPel формата : Нет
Параметр GMC формата : Без точки перехода
Параметр матрицы формата : Default (H.263)
Режим смешивания : Сжатый битовый поток
Идентификатор кодека : DX50
Идентификатор кодека/Подсказка : DivX 5
Продолжительность : 43 м.
Битрейт : 971 Кбит/сек
Ширина : 640 пикселей
Высота : 480 пикселей
Соотношение сторон : 4:3
Частота кадров : 25,000 кадров/сек
Цветовое пространство : YUV
Субдискретизация насыщенности : 4:2:0
Битовая глубина : 8 бит
Тип развёртки : Прогрессивная
Метод сжатия : С потерями
Бит/(Пиксели*Кадры) : 0.126
Размер потока : 305 Мбайт (88%)
Библиотека кодирования : DivX 5.1.1 (Maupiti) (UTC 2003-11-19)

Аудио
Идентификатор : 1
Формат : MPEG Audio
Версия формата : Version 1
Профиль формата : Layer 3
Режим : Joint stereo
Расширение режима : MS Stereo
Идентификатор кодека : 55
Идентификатор кодека/Подсказка : MP3
Продолжительность : 43 м.
Вид битрейта : Постоянный
Битрейт : 128 Кбит/сек
Каналы : 2 канала
Частота : 44,1 КГц
Метод сжатия : С потерями
Размер потока : 40,3 Мбайт (12%)
Выравнивание : Разделение по промежуткам
Продолжительность промежутка : 40 мс. (1,00 видеокадр)
Время предзагрузки промежутка : 500 мс.

Общее
Полное имя : F:\Релиз\Prokliatyj Raj 1-48_(48)_SATRip_2007\Prokliatyj_Raj-47-48.avi
Формат : AVI
Формат/Информация : Audio Video Interleave
Размер файла : 666 Мбайт
Продолжительность : 1 ч. 23 м.
Общий поток : 1109 Кбит/сек
Библиотека кодирования : VirtualDub-MPEG2 build 24417/release

Видео
Идентификатор : 0
Формат : MPEG-4 Visual
Параметр BVOP формата : 1
Параметр QPel формата : Нет
Параметр GMC формата : Без точки перехода
Параметр матрицы формата : Default (H.263)
Режим смешивания : Сжатый битовый поток
Идентификатор кодека : DX50
Идентификатор кодека/Подсказка : DivX 5
Продолжительность : 1 ч. 23 м.
Битрейт : 972 Кбит/сек
Ширина : 640 пикселей
Высота : 480 пикселей
Соотношение сторон : 4:3
Частота кадров : 25,000 кадров/сек
Цветовое пространство : YUV
Субдискретизация насыщенности : 4:2:0
Битовая глубина : 8 бит
Тип развёртки : Прогрессивная
Метод сжатия : С потерями
Бит/(Пиксели*Кадры) : 0.127
Размер потока : 583 Мбайт (88%)
Библиотека кодирования : DivX 5.1.1 (Maupiti) (UTC 2003-11-19)

Аудио
Идентификатор : 1
Формат : MPEG Audio
Версия формата : Version 1
Профиль формата : Layer 3
Режим : Joint stereo
Расширение режима : MS Stereo
Идентификатор кодека : 55
Идентификатор кодека/Подсказка : MP3
Продолжительность : 1 ч. 23 м.
Вид битрейта : Постоянный
Битрейт : 128 Кбит/сек
Каналы : 2 канала
Частота : 44,1 КГц
Метод сжатия : С потерями
Размер потока : 76,8 Мбайт (12%)
Выравнивание : Разделение по промежуткам
Продолжительность промежутка : 40 мс. (1,00 видеокадр)
Время предзагрузки промежутка : 500 мс.
pb.wtf



Скачать Проклятый рай через торрент http://i5.imageban.ru/out/2014/08/13/1d0f63cd73f6874d327180c6733a35a9.jpg Скачать фильм Проклятый рай через торрент бесплантно в хорошем качестве Описание: Элитный бордель для особо важных персон. Здесь продаются жаркие ласки и кипят нешуточные страсти. Четко отлаженный криминальный ... 10 10 6
Info! Золотая раздача, скачанное не засчитывается.
Торрент: Зарегистрирован [2014-08-13 18:26] · скачан: 69 раз
Статус: √ проверено
Размер: 16.23 GB
Как cкачать? Как скачать Проклятый рай через торрент | qTorrent

% Раздел Тема Автор DL S | L
Наши сериалы [ 18.77 GB ] Проклятый рай 2 / Серии:48 из 48 [2008 Россия SATRip] gunk Скачать
1 | 0

28-11-2019 20:33  

Отключить всю рекламу на сайте

    Дорогой пользователь! Огромная просьба, поблагодарите релизера, оцените раздачу и оставьте свои комментарий, если Вы скачали Проклятый рай через торрент бесплатно! Внесите свою лепту в развитие PiratBit!
    Комментировать посты могут только пользователи прошедшие не сложную регистрацию
    Показать сообщения:    

    Проклятый рай через торрент
    Скачать бесплатно Проклятый рай
    Проклятый рай скачать торрент
    Проклятый рай смотреть онлайн
    Cкачать фильм Проклятый рай бесплатно
    Проклятый рай скачать торрент в хорошем качестве
    Проклятый рай смотреть онлайн бесплатно в хорошем качестве


    Вы не можете начинать темы
    Вы не можете отвечать на сообщения
    Вы не можете редактировать свои сообщения
    Вы не можете удалять свои сообщения
    Вы не можете голосовать в опросах
    Вы не можете прикреплять файлы к сообщениям
    Вы можете скачивать файлы