Доктор Стрэндж

Лицензия

Добыча

Дубляж

Уэнсдэй

1 сезон

Тор

Дубляж

В эфире

Дубляж

Там, где раки поют

MVO

Властелин колец

1 сезон

Deluxe

pack

Рекомендуем

30

Пиратка

ВАЖНО

ВАЖНО

Ghostwire

Пиратка

jed

RePack

nioh2

RePack

RDR2

RePack

NEED FOR SPEED™ PAYBACK

RePack

скачать торрент

Кинопоиск HD

Острые козырьки 6 сезон

6 сезон

FAR CRY 6

RePack

скачать торрент

Лицензия

скачать торрент

MVO

1

1 сезон

скачать торрент

1 сезон

скачать торрент

Лицензия

  

Игрушечные солдатики / Toy Soldiers (Дэниел Питри мл.) [1991 г., Боевик, триллер, драма, Blu-ray, Профессиональный многоголосый]

Игрушечные солдатики через торрент pb.wtf

Размер: 16.79 GB | Добавлен: 8 лет 3 мес. назад | Торрент скачан:2 раза
Смотреть онлайн | Скачать   

13-08-2014 19:01 Игрушечные солдатики Скачать торрент  

Игрушечные солдатики / Toy Soldiers
Год выпуска: 1991
Страна: США
Жанр: Боевик, триллер, драма
Продолжительность: 01:52:03
Перевод: Профессиональный многоголосый (Норд Видео)+Профессиональный многоголосый (SDI MEDIA)+
Профессиональный многоголосый (ОРТ)+Профессиональный двухголосый (НТВ+)+Авторский одноголосый (Дохалов)+
Оригинал

Субтитры: Английские

Режиссер: Дэниел Питри мл.

В ролях: Шон Эстин, Уил Уитон, Кит Куган, Эндрю Дивофф, Р. Ли Эрми, Мейсон Эдамс, Денхолм Эллиотт, Луис Госсет мл., Джордж Перес, Т. Э. Рассел, Шоун Фелан, Майкл Чэмпион, Трейси Брук Своуп, Макс Мэнвелл, Джо Инскоу, Джерри Лайден, Рене Гатика, Джереми МакЛерран, Джесси Доран, Стэн Келли, Кэрол Шоумэйкер, Адам Бонифант, Марк Ретц, Пол Синкофф, Ричард Трэвис, Жанет Ли Оркутт, Ноул Джонсон, Рафаэль Х. Робледо, Том Триго, Расселл Кристофер Ганьон, Кристофер Нортап, Джо Бэнкс

Описание: Когда учащиеся элитарного колледжа взяты в заложники южноамериканскими террористами, им ничего не остается, как вступить в смертельную схватку. Сержант армии встает во главе отряда студентов в их отчаянной попытке противостоять террору.

Качество: Blu-ray
Формат: BDMV
Видео кодек: H.264
Аудио кодек: AC3-DTS
Видео: MPEG-4 AVC, (1920x1080),16607Кбит/с, 23.976 кадра/сек
Аудио#1: AC-3 2 ch,192 kbps (Rus) 48.0 KHz Профессиональный многоголосый (Норд Видео)
Аудио#2: AC-3 2 ch,192 kbps (Rus) 48.0 KHz Профессиональный многоголосый (SDI MEDIA)
Аудио#3: AC-3 2 ch,192 kbps (Rus) 48.0 KHz Профессиональный многоголосый (ОРТ)
Аудио#4: AC-3 2 ch,192 kbps (Rus) 48.0 KHz Профессиональный двухголосый (НТВ+)
Аудио#5: AC-3 2 ch,192 kbps (Rus) 48.0 KHz Авторский одноголосый (Дохалов)
Аудио#6: DTS 6 ch,768 kbps (Eng) 48.0 KHz Оригинал
скриншот   скриншот   скриншот  

Тип потока: Видео
Длительность: 01:52:03
Кодек: AVC
Кодек/описание: Advanced Video Codec
Кодек/профиль: [email protected]
Кодек/ID: 27
Кодек/CABAC: Yes
Кодек/ReFrames: 2 frames
Размеры изображения: 1920 x 1080 (16:9)
Частота кадров: 23.976 fps
Битрейт/макс: 30.2 Mbps
Битрейт/тип: VBR
Цветовое пространство: YUV
Тип развёртки: Progressive
Колориметрия: 4:2:0
Глубина: 8 bits
:
Тип потока: Звук #1
Язык: Russian
Длительность: 01:52:03.040
Кодек: AC-3
Кодек/описание: Audio Coding 3
Кодек/ID: 129
Частота дискретизации: 48.0 KHz
Каналов: 2 channels
Битрейт: 192 Kbps
Битрейт/тип: Constant
Размер потока: 154 MiB (1%)
Глубина: 16 bits
Метод сжатия: Lossy
:
Тип потока: Звук #2
Язык: Russian
Длительность: 01:52:03.040
Кодек: AC-3
Кодек/описание: Audio Coding 3
Кодек/ID: 129
Частота дискретизации: 48.0 KHz
Каналов: 2 channels
Битрейт: 192 Kbps
Битрейт/тип: Constant
Размер потока: 154 MiB (1%)
Глубина: 16 bits
Метод сжатия: Lossy
:
Тип потока: Звук #3
Язык: Russian
Длительность: 01:52:03.040
Кодек: AC-3
Кодек/описание: Audio Coding 3
Кодек/ID: 129
Частота дискретизации: 48.0 KHz
Каналов: 2 channels
Битрейт: 192 Kbps
Битрейт/тип: Constant
Размер потока: 154 MiB (1%)
Глубина: 16 bits
Метод сжатия: Lossy
:
Тип потока: Звук #4
Язык: Russian
Длительность: 01:52:03.040
Кодек: AC-3
Кодек/описание: Audio Coding 3
Кодек/ID: 129
Частота дискретизации: 48.0 KHz
Каналов: 2 channels
Битрейт: 192 Kbps
Битрейт/тип: Constant
Размер потока: 154 MiB (1%)
Глубина: 16 bits
Метод сжатия: Lossy
:
Тип потока: Звук #5
Язык: Russian
Длительность: 01:52:03.040
Кодек: AC-3
Кодек/описание: Audio Coding 3
Кодек/ID: 129
Частота дискретизации: 48.0 KHz
Каналов: 2 channels
Битрейт: 192 Kbps
Битрейт/тип: Constant
Размер потока: 154 MiB (1%)
Глубина: 16 bits
Метод сжатия: Lossy
:
Тип потока: Звук #6
Язык: English
Длительность: 01:52:03.723
Кодек: DTS
Кодек/описание: Digital Theater Systems
Кодек/профиль: MA / Core
Режим смешивания: Stream extension
Кодек/ID: 134
Частота дискретизации: 48.0 KHz
Каналов: 8 channels / 6 channels
Битрейт: Unknown / 768 Kbps
Битрейт/тип: Variable
Глубина: 16 bits
Метод сжатия: Lossless / Lossy
:
Тип потока: Субтитры #1
Язык: English
Формат: PGS




Скачать Игрушечные солдатики через торрент https://pic1.kartinco.top/images/61/1fzwt.jpg Скачать, смотреть онлайн Игрушечные солдатики бесплантно в хорошем качестве Описание: Когда учащиеся элитарного колледжа взяты в заложники южноамериканскими террористами, им ничего не остается, как вступить в ... 8.4 10 5
Info! Золотая раздача, скачанное не засчитывается.
Торрент: Зарегистрирован [2014-08-13 19:01] · скачан: 2 раз
Статус: √ проверено
Размер: 16.79 GB
Как cкачать? Как скачать Игрушечные солдатики через торрент | UTorrent

% Раздел Тема Автор DL S | L
Фильмы [HD 720p, 1080p] (Хороший звук DUB, MVO) [ 10.92 GB ] Игрушечные солдатики / Toy Soldiers | MVO | 1080p msltel Скачать
1 | 0
Фильмы [HD 720p, 1080p] (Хороший звук DUB, MVO) [ 5.17 GB ] Игрушечные солдатики / Toy Soldiers | MVO | 720p msltel Скачать
2 | 0
Фильмы до 2000 г. [ 3.54 GB ] Игрушечные солдатики / Toy Soldiers | MVO | BDRip AVC msltel Скачать
1 | 0

28-11-2019 20:33  


Отключить вcю реклaмy на сайте, в т.ч. и в плеере онлайн просмотра!

13-08-2014 19:14 Игрушечные солдатики Скачать торрент  

фильм моего детства один из моих любимых фильмов советую всем посмотреть фильм супер!!!!



    Дорогой пользователь! Огромная просьба, поблагодарите релизера, оцените раздачу и оставьте свои комментарий, если Вы скачали Игрушечные солдатики через торрент бесплатно!!
    Комментировать посты могут только пользователи прошедшие не сложную регистрацию
    Показать сообщения:    


    Игрушечные солдатики через торрент
    Скачать бесплатно Игрушечные солдатики
    Игрушечные солдатики скачать торрент
    Игрушечные солдатики смотреть онлайн
    Cкачать фильм Игрушечные солдатики бесплатно
    Игрушечные солдатики скачать торрент в хорошем качестве
    Игрушечные солдатики смотреть онлайн бесплатно в хорошем качестве
    Вы не можете начинать темы
    Вы не можете отвечать на сообщения
    Вы не можете редактировать свои сообщения
    Вы не можете удалять свои сообщения
    Вы не можете голосовать в опросах
    Вы не можете прикреплять файлы к сообщениям
    Вы можете скачивать файлы
    Игрушечные солдатики / Toy Soldiers [1991 г., Боевик, триллер, драма, Blu-ray, Профессиональный многоголосый] смотреть онлайн, скачать торрент picoco.icu