1 сезон

1 сезон

iTunes

1

КиноПоиск HD

Кинопоиск HD

iTunes

13

1 сезон

RePack

30

Новинка

ВАЖНО

ИГРА 18+

pack

RePack

MK11
pack

Легкие деньги

RePack

jed

RePack

fifa19

RePack

RDR2

RePack

NEED FOR SPEED™ PAYBACK

4 сезон

9 сезон

Бесстыжие 9 сезон

Все сериалы

все сериалы на PB.wtf

RePack

FAR CRY 5
  
Magnet ссылка

Живой товар / Торговля людьми / Human Trafficking (Кристиан Дюге ) (2 серии) [2005 г., Триллер, драма, криминал, детектив, DVDRip] MVO pb.wtf

Живой товар через торрент pb.wtf

Размер: 2.74 GB | Добавлен: 6 лет 8 мес. назад | Торрент скачан:61 раз
Скачать  

13-08-2014 20:58 Живой товар Скачать торрент  

Живой товар / Human Trafficking

Год выпуска: 2005
Страна: Канада, США
Жанр: триллер, драма, криминал, детектив

Продолжительность: 01:25:40 + 01:24:37
Перевод: Профессиональный многоголосый
Субтитры: Нет
Режиссер: Кристиан Дюге / Christian Duguay
В ролях: Мира Сорвино (Kate), Дональд Сазерленд (Meehan), Роберт Карлайл (Sergei), Реми Жирар (Viktor), Изабель Блэ (Helena), Линн Эдамс (Ellen), Сара Аллен (Ludmilla), Андреас Апергис (Jimmy), Мануэль Арангиз (Mexican Police Captain), Селин Бонье (Sophie), Эмма Кэмпбелл (Samantha), Эдуардо Кастильон (Roy Filipo)
Описание:
16-летняя украинка Надя бежит из дома, соблазнившись работой в модельном агентстве на Западе, и ее следы теряются. В Юго-Восточной Азии похищают 12-летнюю американку Энни, приехавшую с семьей на отдых. В Праге исчезает мать-одиночка Хелена, соблазненная богатым бизнесменом. В Румынии после встречи с женихом, с которым познакомилась по Интернету, пропадает 17-летняя Катерина.
Эти девушки разделяют судьбу тысяч подруг по несчастью. Их увозят в Европу или Америку, но все они становятся секс-рабынями. Детектив Кейт Морозов и сотрудник иммиграционной службы Билл Михэна пытаются спасти беззащитных жертв и покарать их бездушных поработителей...

Рейтинг

imdb.com: 7.70 (5090)
Качество: DVDRip
Формат: AVI
Видео кодек: XviD
Аудио кодек:AC3
Видео: XviD, 704x400 (16:9), 1828 kbps, 25 fps, 0,260 bpp
Аудио: AC3 / 5.1 / 48 kHz / 448 kbps / 16 bit

Сэмпл

General
Complete name : F:\Релиз\Zhivoy.tovar.2005.P.DVDRip\01 seria.avi
Format : AVI
Format/Info : Audio Video Interleave
File size : 1.37 GiB
Duration : 1h 25mn
Overall bit rate : 2 287 Kbps
Writing application : VirtualDubMod 1.5.10.3 (build 2550/release)
Writing library : VirtualDubMod build 2550/release

Video
ID : 0
Format : MPEG-4 Visual
Format profile : Advanced Simple@L5
Format settings, BVOP : 2
Format settings, QPel : No
Format settings, GMC : No warppoints
Format settings, Matrix : Default (H.263)
Codec ID : XVID
Codec ID/Hint : XviD
Duration : 1h 25mn
Bit rate : 1 829 Kbps
Width : 704 pixels
Height : 400 pixels
Display aspect ratio : 16:9
Frame rate : 25.000 fps
Color space : YUV
Chroma subsampling : 4:2:0
Bit depth : 8 bits
Scan type : Progressive
Compression mode : Lossy
Bits/(Pixel*Frame) : 0.260
Stream size : 1.09 GiB (80%)
Writing library : XviD 64

Audio
ID : 1
Format : AC-3
Format/Info : Audio Coding 3
Mode extension : CM (complete main)
Codec ID : 2000
Duration : 1h 25mn
Bit rate mode : Constant
Bit rate : 448 Kbps
Channel(s) : 6 channels
Channel positions : Front: L C R, Side: L R, LFE
Sampling rate : 48.0 KHz
Bit depth : 16 bits
Compression mode : Lossy
Stream size : 275 MiB (20%)
Alignment : Split accross interleaves
Interleave, duration : 40 ms (1.00 video frame)
Interleave, preload duration : 500 ms
pb.wtf



Скачать Живой товар через торрент http://i1.imageban.ru/out/2014/08/14/210498a1a3fd12784070fbe000333c38.jpg Скачать фильм Живой товар через торрент бесплантно в хорошем качестве Описание: 16-летняя украинка Надя бежит из дома, соблазнившись работой в модельном агентстве на Западе, и ее следы теряются. В ... 10 10 5
Info! Золотая раздача, скачанное не засчитывается.
Торрент: Зарегистрирован [2014-08-13 20:58] · скачан: 61 раз
Статус: √ проверено
Размер: 2.74 GB
Как cкачать? Как скачать Живой товар через торрент | UTorrent

28-11-2019 20:33  

Отключить всю рекламу на сайте

13-08-2014 21:08 Живой товар Скачать торрент  

gunk, Название темы подправил, серии указываем обязательно.
По поводу фотохостингов рекомендую лить на наш https://pic.kartinco.top/new/
Список рекомендованных хостингов для заливки скринов, постеров, картинок с этих хостингов, на Пиратбите! pb.wtf





Последний раз редактировалось: Ворон (2014-08-13 21:09), всего редактировалось 1 раз

13-08-2014 21:09 Живой товар Скачать торрент  

Raven писал(а):

gunk, Название темы подправил, серии указываем обязательно.

Ок,спасибо.pb.wtf



14-08-2014 07:08 Живой товар Скачать торрент  

Спасибо!
Фильм нормал.pb.wtf



14-08-2014 16:48 Живой товар Скачать торрент  

WaD1m писал(а):

Спасибо!
Фильм нормал.

Пожалуйстаpb.wtf



    Дорогой пользователь! Огромная просьба, поблагодарите релизера, оцените раздачу и оставьте свои комментарий, если Вы скачали Живой товар через торрент бесплатно! Внесите свою лепту в развитие PiratBit!
    Комментировать посты могут только пользователи прошедшие не сложную регистрацию
    Показать сообщения:    

    Живой товар через торрент
    Скачать бесплатно Живой товар
    Живой товар скачать торрент
    Живой товар смотреть онлайн
    Cкачать фильм Живой товар бесплатно
    Живой товар скачать торрент в хорошем качестве
    Живой товар смотреть онлайн бесплатно в хорошем качестве


    Вы не можете начинать темы
    Вы не можете отвечать на сообщения
    Вы не можете редактировать свои сообщения
    Вы не можете удалять свои сообщения
    Вы не можете голосовать в опросах
    Вы не можете прикреплять файлы к сообщениям
    Вы можете скачивать файлы