2 сезон

iTunes

MVO

1

2 сезон

iTunes

iTunes

1 сезон

RePack

30

Новинка

ВАЖНО

ИГРА 18+

pack

RePack

MK11
pack

Легкие деньги

RePack

jed

RePack

fifa19

RePack

RDR2

RePack

NEED FOR SPEED™ PAYBACK

4 сезон

9 сезон

Бесстыжие 9 сезон

Все сериалы

все сериалы на PB.wtf

RePack

FAR CRY 5

Anonymous, доброе утро, мы не успеваем собрать деньги на оплату серверов за декабрь и январь, помогите нам пожалуйста в это трудное время. В качестве благодарности мы отключим Вам всю рекламу на сайте (укажите свой ник в строку Ваше имя)!

×
  
Magnet ссылка

Подари мне убежище / Gimme Shelter (Рон Краусс / Ron Krauss) [2013, США, драма, HDRip, MVO] [Лицензия / iTunes] pb.wtf

Подари мне убежище через торрент pb.wtf

Размер: 1.46 GB | Добавлен: 6 лет 5 мес. назад | Торрент скачан:166 раз
Скачать  

14-08-2014 01:28 Подари мне убежище Скачать торрент  

Подари мне убежище / Gimme Shelter
«Иногда Вы должны уехать из дома, чтобы найти Вашу семью»


  • Год выпуска: 2013
  • Страна: США
  • Жанр: драма
  • Продолжительность: 01:41:06
  • Перевод: Профессиональный многоголосый закадровый [Лицензия / iTunes]

  • Режиссер: Рон Краусс / Ron Krauss
  • В ролях:

    Ванесса Энн Хадженс (Agnes «Apple» Bailey), Стефани Зостак (Joanna Fitzpatrick), Даша Поланко (Carmel), Розарио Доусон (June Bailey), Брендан Фрейзер (Tom Fitzpatrick), Эмили Миде (Cassandra), Джеймс Эрл Джонс (Frank McCarthy), Энн Дауд (Kathy), Кендес Смит (Marie Abeanni), Ташиана Р. Вашингтон (Destiny / Princess), Эдди Швайгхардт (Dustin), Шила Тапия (Officer Ganz)

  • Описание:
    Фильм расскажет про беременную девушку, убежавшую из дома от сварливой матери в поисках биологического отца. Последний бросил ее мать, которая была для него случайной связью из молодости. Сначала он отказывается поддержать девушку и требует от нее аборта, но потом в нем начинает просыпаться отец.
  • Рейтинг:



  • Качество: HDRip
  • Формат: :AVI
  • Видео кодек: XviD
  • Аудио кодек: AC3
  • Видео: 720x304 (2.35:1), 1670 kbps, 23,976 fps, 0,318 bpp
  • Аудио: 5.1 / 48 kHz / 384 kbps / 16 bit
  • Релиз от: GEKADOL
    Не нашли то, что искали? Для вас "Стол заказов"

    Код:

    General
    Complete name                            : H:\ТОРРЕНТЫ\Podar1.Ubegische.2013.P.HDRip.avi
    Format                                   : AVI
    Format/Info                              : Audio Video Interleave
    File size                                : 1.46 GiB
    Duration                                 : 1h 41mn
    Overall bit rate                         : 2 063 Kbps
    Writing application                      : VirtualDubMod 1.5.10.2 (build 2540/release)
    Writing library                          : VirtualDubMod build 2540/release

    Video
    ID                                       : 0
    Format                                   : MPEG-4 Visual
    Format profile                           : Advanced Simple@L5
    Format settings, BVOP                    : 2
    Format settings, QPel                    : No
    Format settings, GMC                     : No warppoints
    Format settings, Matrix                  : Default (MPEG)
    Codec ID                                 : XVID
    Codec ID/Hint                            : XviD
    Duration                                 : 1h 41mn
    Bit rate                                 : 1 670 Kbps
    Width                                    : 720 pixels
    Height                                   : 304 pixels
    Display aspect ratio                     : 2.35:1
    Frame rate                               : 23.976 fps
    Color space                              : YUV
    Chroma subsampling                       : 4:2:0
    Bit depth                                : 8 bits
    Scan type                                : Progressive
    Compression mode                         : Lossy
    Bits/(Pixel*Frame)                       : 0.318
    Stream size                              : 1.18 GiB (81%)
    Writing library                          : XviD 1.2.1 (UTC 2008-12-04)

    Audio
    ID                                       : 1
    Format                                   : AC-3
    Format/Info                              : Audio Coding 3
    Mode extension                           : CM (complete main)
    Codec ID                                 : 2000
    Duration                                 : 1h 41mn
    Bit rate mode                            : Constant
    Bit rate                                 : 384 Kbps
    Channel(s)                               : 6 channels
    Channel positions                        : Front: L C R, Side: L R, LFE
    Sampling rate                            : 48.0 KHz
    Bit depth                                : 16 bits
    Compression mode                         : Lossy
    Stream size                              : 277 MiB (19%)
    Alignment                                : Split accross interleaves
    Interleave, duration                     : 42 ms (1.00 video frame)
    Interleave, preload duration             : 500 ms


    Скриншоты:


    pb.wtf



  • Скачать Подари мне убежище через торрент http://i67.fastpic.ru/big/2014/0814/e9/6fa4209e302f9c4a46639f929ea170e9.jpg Скачать фильм Подари мне убежище через торрент бесплантно в хорошем качестве Описание: Фильм расскажет про беременную девушку, убежавшую из дома от сварливой матери в поисках биологического отца. Последний бросил ее ... 9.2 10 5
    Торрент: Зарегистрирован [2014-08-14 01:28] · скачан: 166 раз
    Статус: √ проверено
    Размер: 1.46 GB
    Как cкачать? Как скачать Подари мне убежище через торрент | UTorrent

    28-11-2019 20:33  

    Отключить всю рекламу на сайте

      Дорогой пользователь! Огромная просьба, поблагодарите релизера, оцените раздачу и оставьте свои комментарий, если Вы скачали Подари мне убежище через торрент бесплатно! Внесите свою лепту в развитие PiratBit!
      Комментировать посты могут только пользователи прошедшие не сложную регистрацию
      Показать сообщения:    

      Подари мне убежище через торрент
      Скачать бесплатно Подари мне убежище
      Подари мне убежище скачать торрент
      Подари мне убежище смотреть онлайн
      Cкачать фильм Подари мне убежище бесплатно
      Подари мне убежище скачать торрент в хорошем качестве
      Подари мне убежище смотреть онлайн бесплатно в хорошем качестве


      Вы не можете начинать темы
      Вы не можете отвечать на сообщения
      Вы не можете редактировать свои сообщения
      Вы не можете удалять свои сообщения
      Вы не можете голосовать в опросах
      Вы не можете прикреплять файлы к сообщениям
      Вы можете скачивать файлы