Всегда рабочее зеркало без VPN и Proxy просто перед .vidak.icu напиши любое слово или цифру, Пример http://7y9l.vidak.icu

MVO

MVO

1 сезон

1

1 сезон

iTunes

1 сезон

13

1 сезон

Deluxe

pack

Рекомендуем

Repack

30

ВАЖНО

RePack

MK11

RePack

jed

RePack

fifa19

RePack

RDR2

RePack

NEED FOR SPEED™ PAYBACK

Кинопоиск HD

6 сезон

 Острые козырьки 6 сезон

Все сериалы

все сериалы на PB.wtf

RePack

FAR CRY 5
  
Magnet ссылка

Кристи / Случайные / Kristy / Random (Оливер Блэкберн / Oliver Blackburn) [2014, США, ужасы, HDRip, Любительский (одноголосый) [Xixidok]+ENG pb.wtf

Кристи через торрент pb.wtf

Размер: 1.19 GB | Добавлен: 7 лет 11 мес. назад | Торрент скачан:448 раз
Смотреть онлайн Кристи | Скачать    Ребята, помогите собрать деньги на оплату серверов!!!

14-08-2014 03:50 Кристи Скачать торрент  

Кристи / Случайные / Kristy / Random


  • Год выпуска: 2014
  • Страна: США
  • Жанр: ужасы
  • Продолжительность: 01:25:26
  • Перевод: Любительский (одноголосый) [Xixidok]

  • Режиссер: Оливер Блэкберн / Oliver Blackburn
  • В ролях:

    Эшли Грин (Violet), Лукас Тилл (Aaron), Хейли Беннетт (Justine Wills), Джеймс Рэнсон, Крис Кой (Leader), Мэтью Ст. Патрик (Wayne), Челси Брюленд (Victim), Джон Л. Армихо (SWAT), Дэвид Дженсен (Clerk), Уэйн Пер (Professor), Коррина Рошеа (Final victim), Аль Висенте (Dave)

  • Описание:
    Оставшись в одиночестве в кампусе на время празднования Дня Благодарения, студентка вынуждена сражаться с бандой бродяг. Ей предстоит побороть страхи, проявить все свои хитрость и смекалку, чтобы отразить нападение.
  • Рейтинг:



  • Качество: HDRip
  • Формат: :AVI
  • Видео кодек: XviD
  • Аудио кодек: AC3
  • Видео: 720x304 (2.35:1), 1332 kbps, 23,976 fps, 0,254 bpp
  • Аудио №1: Русский 2.0 / 44 kHz / 192 kbps / 16 bit
  • Аудио №2: Английский 5.1 / 48 kHz / 448 kbps / 16 bit
  • Релиз от: GEKADOL
    Не нашли то, что искали? Для вас "Стол заказов"

    Код:

    General
    Complete name                            : D:\Фильмы\Random.2014.L1.HDRip.avi
    Format                                   : AVI
    Format/Info                              : Audio Video Interleave
    File size                                : 1.19 GiB
    Duration                                 : 1h 25mn
    Overall bit rate                         : 1 986 Kbps
    Writing application                      : VirtualDubMod 1.5.10.3 | www.virtualdub-fr.org || (build 2550/release)
    Writing library                          : VirtualDubMod build 2550/release

    Video
    ID                                       : 0
    Format                                   : MPEG-4 Visual
    Format profile                           : Advanced [email protected]
    Format settings, BVOP                    : 1
    Format settings, QPel                    : No
    Format settings, GMC                     : No warppoints
    Format settings, Matrix                  : Custom
    Codec ID                                 : XVID
    Codec ID/Hint                            : XviD
    Duration                                 : 1h 25mn
    Bit rate                                 : 1 332 Kbps
    Width                                    : 720 pixels
    Height                                   : 304 pixels
    Display aspect ratio                     : 2.35:1
    Frame rate                               : 23.976 fps
    Color space                              : YUV
    Chroma subsampling                       : 4:2:0
    Bit depth                                : 8 bits
    Scan type                                : Progressive
    Compression mode                         : Lossy
    Bits/(Pixel*Frame)                       : 0.254
    Stream size                              : 814 MiB (67%)
    Writing library                          : XviD 73

    Audio #1
    ID                                       : 1
    Format                                   : AC-3
    Format/Info                              : Audio Coding 3
    Mode extension                           : CM (complete main)
    Codec ID                                 : 2000
    Duration                                 : 1h 25mn
    Bit rate mode                            : Constant
    Bit rate                                 : 192 Kbps
    Channel(s)                               : 2 channels
    Channel positions                        : Front: L R
    Sampling rate                            : 44.1 KHz
    Bit depth                                : 16 bits
    Compression mode                         : Lossy
    Delay relative to video                  : 20ms
    Stream size                              : 117 MiB (10%)
    Alignment                                : Split accross interleaves
    Interleave, duration                     : 42 ms (1.00 video frame)
    Interleave, preload duration             : 500 ms

    Audio #2
    ID                                       : 2
    Format                                   : AC-3
    Format/Info                              : Audio Coding 3
    Mode extension                           : CM (complete main)
    Codec ID                                 : 2000
    Duration                                 : 1h 25mn
    Bit rate mode                            : Constant
    Bit rate                                 : 448 Kbps
    Channel(s)                               : 6 channels
    Channel positions                        : Front: L C R, Side: L R, LFE
    Sampling rate                            : 48.0 KHz
    Bit depth                                : 16 bits
    Compression mode                         : Lossy
    Stream size                              : 274 MiB (23%)
    Alignment                                : Split accross interleaves
    Interleave, duration                     : 42 ms (1.00 video frame)
    Interleave, preload duration             : 500 ms


    Скриншоты:


    pb.wtf



  • Скачать Кристи через торрент https://pic.kartinco.top/new/img/2014-08/14/anbqeqh0pix7sejl5kiye8sdx.png Скачать, смотреть онлайн Кристи бесплантно в хорошем качестве Описание: Оставшись в одиночестве в кампусе на время празднования Дня Благодарения, студентка вынуждена сражаться с бандой бродяг. Ей ... 9.4 10 9
    Торрент: Зарегистрирован [2014-08-14 03:50] · скачан: 448 раз
    Статус: √ проверено
    Размер: 1.19 GB
    Как cкачать? Как скачать Кристи через торрент | UTorrent

    28-11-2019 20:33  

    Отключить вcю реклaмy на сайте

    14-08-2014 05:34 Кристи Скачать торрент  

    За изготовление постера особая благодарность Raven!!!pb.wtf



    14-08-2014 21:11 Кристи Скачать торрент  

    на удивление-весьма недурственный триллерок-очень даже такой напряжонненький-любителям жанра самое тоpb.wtf



    16-08-2014 06:38 Кристи Скачать торрент  

    сюжет судя по описанию взят из саус парка из серии где нашествие бомжар было)pb.wtf



      Дорогой пользователь! Огромная просьба, поблагодарите релизера, оцените раздачу и оставьте свои комментарий, если Вы скачали Кристи через торрент бесплатно!
      Комментировать посты могут только пользователи прошедшие не сложную регистрацию
      Показать сообщения:    

      Кристи через торрент
      Скачать бесплатно Кристи
      Кристи скачать торрент
      Кристи смотреть онлайн
      Cкачать фильм Кристи бесплатно
      Кристи скачать торрент в хорошем качестве
      Кристи смотреть онлайн бесплатно в хорошем качестве


      Вы не можете начинать темы
      Вы не можете отвечать на сообщения
      Вы не можете редактировать свои сообщения
      Вы не можете удалять свои сообщения
      Вы не можете голосовать в опросах
      Вы не можете прикреплять файлы к сообщениям
      Вы можете скачивать файлы