1 сезон

1 сезон

iTunes

1

КиноПоиск HD

Кинопоиск HD

iTunes

13

1 сезон

RePack

30

Новинка

ВАЖНО

ИГРА 18+

pack

RePack

MK11
pack

Легкие деньги

RePack

jed

RePack

fifa19

RePack

RDR2

RePack

NEED FOR SPEED™ PAYBACK

4 сезон

9 сезон

Бесстыжие 9 сезон

Все сериалы

все сериалы на PB.wtf

RePack

FAR CRY 5
  
Magnet ссылка

Радио / Radio (Майкл Толлин / Michael Tollin) [2003, США, драма, биография, спорт, HDTVRip, MVO] pb.wtf

Радио через торрент pb.wtf

Размер: 1.45 GB | Добавлен: 6 лет 7 мес. назад | Торрент скачан:67 раз
Скачать  

14-08-2014 05:10 Радио Скачать торрент  

Радио / Radio
«Он не мог стать чемпионом. Но он сделал чемпионами других»


  • Год выпуска: 2003
  • Страна: США
  • Жанр: драма, биография, спорт
  • Продолжительность: 01:49:20
  • Перевод: Профессиональный многоголосый закадровый

  • Режиссер: Майкл Толлин / Michael Tollin
  • В ролях:

    Кьюба Гудинг мл. (Radio), Эд Харрис (Coach Jones), Элфри Вудард (Principal Daniels), С. Эпата Меркерсон (Maggie), Брент Секстон (Honeycutt), Крис Малки (Frank), Сара Дрю (Mary Helen), Райли Смит (Johnny), Патрик Брин (Tucker), Дебра Уингер (Linda), Билл Роберсон (Del), Кеннет Х. Кэллэндер (Don)

  • Описание:
    Американская глубинка середины прошлого века... Умственно отсталый паренёк по прозвищу Радио является объектом насмешек всего городка. Однако, тренер местной футбольной команды берёт Радио под свою опеку, и это меняет жизнь всего города...
  • Рейтинг:



  • Качество: HDTVRip
  • Формат: :AVI
  • Видео кодек: XviD
  • Аудио кодек: AC3
  • Видео: 720x400 (16:9), 1445 kbps, 23,976 fps, 0,209 bpp
  • Аудио: 5.1 / 48 kHz / 448 kbps / 16 bit
  • Релиз от: GEKADOL
    Не нашли то, что искали? Для вас "Стол заказов" "Жмём сюда!"

    Код:

    General
    Complete name                            : D:\Фильмы\Radio_HDTVRip_[rutracker.org]_by_Scarabey.avi
    Format                                   : AVI
    Format/Info                              : Audio Video Interleave
    File size                                : 1.45 GiB
    Duration                                 : 1h 49mn
    Overall bit rate                         : 1 903 Kbps
    Writing application                      : VirtualDubMod 1.5.10.2 (build 2540/release)
    Writing library                          : VirtualDubMod build 2540/release

    Video
    ID                                       : 0
    Format                                   : MPEG-4 Visual
    Format profile                           : Advanced Simple@L5
    Format settings, BVOP                    : 1
    Format settings, QPel                    : No
    Format settings, GMC                     : No warppoints
    Format settings, Matrix                  : Custom
    Codec ID                                 : XVID
    Codec ID/Hint                            : XviD
    Duration                                 : 1h 49mn
    Bit rate                                 : 1 446 Kbps
    Width                                    : 720 pixels
    Height                                   : 400 pixels
    Display aspect ratio                     : 16:9
    Frame rate                               : 23.976 fps
    Color space                              : YUV
    Chroma subsampling                       : 4:2:0
    Bit depth                                : 8 bits
    Scan type                                : Progressive
    Compression mode                         : Lossy
    Bits/(Pixel*Frame)                       : 0.209
    Stream size                              : 1.10 GiB (76%)
    Writing library                          : XviD 1.2.1 (UTC 2008-12-04)

    Audio
    ID                                       : 1
    Format                                   : AC-3
    Format/Info                              : Audio Coding 3
    Mode extension                           : CM (complete main)
    Codec ID                                 : 2000
    Duration                                 : 1h 49mn
    Bit rate mode                            : Constant
    Bit rate                                 : 448 Kbps
    Channel(s)                               : 6 channels
    Channel positions                        : Front: L C R, Side: L R, LFE
    Sampling rate                            : 48.0 KHz
    Bit depth                                : 16 bits
    Compression mode                         : Lossy
    Stream size                              : 350 MiB (24%)
    Alignment                                : Split accross interleaves
    Interleave, duration                     : 42 ms (1.00 video frame)
    Interleave, preload duration             : 500 ms


    Скриншоты:

    Специально для стола заказов!

    pb.wtf



  • Скачать Радио через торрент https://pic.kartinco.top/new/img/2014-08/14/72jbdirmag5qrvtlzoh25vb2a.png Скачать фильм Радио через торрент бесплантно в хорошем качестве Описание: Американская глубинка середины прошлого века... Умственно отсталый паренёк по прозвищу Радио является объектом насмешек всего ... 10 10 4
    Info! Золотая раздача, скачанное не засчитывается.
    Торрент: Зарегистрирован [2014-08-14 05:10] · скачан: 67 раз
    Статус: √ проверено
    Размер: 1.45 GB
    Как cкачать? Как скачать Радио через торрент | UTorrent

    % Раздел Тема Автор DL S | L
    Фильмы (WEB-DL 720p, 1080p) [ 4.59 GB ] Радио / Radio [2003 ивная WEB-DLRip 720p от KORSAR] [MVO] filbi1976 Скачать
    1 | 0
    Фильмы (WEB-DL 720p, 1080p) [ 10.94 GB ] Стремящийся ввысь / Планер / Реклама на радио / Radio Flyer [1992 WEB-DL 1080p] [MVO] filbi1976 Скачать
    1 | 0
    Клипы [ 1.37 GB ] Радиорама / Radiorama - The Best Of... [2005 Italo-Disco DVDRip Оригинальный] velnov Скачать
    1 | 0
    Документальные фильмы и телепередачи [ 1002 MB ] Радиофобия / RadioPhobia [2005 документальный TVRip Оригинальный] Grizzly93rus Скачать
    1 | 0
    Фильмы 2010 [ 2.05 GB ] Свободное Радио Альбемута / Radio Free Albemuth [2010 антиутопия WEB-DLRip] [VO] killermax2013 Скачать
    1 | 0
    Фильмы 2012 [ 1.46 GB ] Радиозвёзды / Radiostars [2012 HDRip [НТВ Ворон Скачать
    1 | 0
    Фильмы 2012 [ 1.46 GB ] Радиозвёзды / Radiostars [2012 HDRipЛюбительский KEYS Скачать
    1 | 0


    Последний раз редактировалось: GEKADOL (2014-08-14 08:40), всего редактировалось 1 раз

    28-11-2019 20:33  

    Отключить всю рекламу на сайте

    14-08-2014 05:34 Радио Скачать торрент  

    За изготовление постера особая благодарность Raven!!!pb.wtf



      Дорогой пользователь! Огромная просьба, поблагодарите релизера, оцените раздачу и оставьте свои комментарий, если Вы скачали Радио через торрент бесплатно! Внесите свою лепту в развитие PiratBit!
      Комментировать посты могут только пользователи прошедшие не сложную регистрацию
      Показать сообщения:    

      Радио через торрент
      Скачать бесплатно Радио
      Радио скачать торрент
      Радио смотреть онлайн
      Cкачать фильм Радио бесплатно
      Радио скачать торрент в хорошем качестве
      Радио смотреть онлайн бесплатно в хорошем качестве


      Вы не можете начинать темы
      Вы не можете отвечать на сообщения
      Вы не можете редактировать свои сообщения
      Вы не можете удалять свои сообщения
      Вы не можете голосовать в опросах
      Вы не можете прикреплять файлы к сообщениям
      Вы можете скачивать файлы