Ссылка на приватное зеркало нашего сайта всего за 1$. Внимание количество ограничено!!!

2 сезон

iTunes

1 сезон

1

2 сезон

2 сезон

iTunes

1 сезон

RePack

30

Ultimate

ВАЖНО

ИГРА 18+

pack

RePack

MK11
pack

Забери бонус

RePack

jed

!!Акция!!

Alien_Rage

RePack

fifa19

RePack

Assassins Creed: Odyssey

RePack

NEED FOR SPEED™ PAYBACK

4 сезон

9 сезон

Бесстыжие 9 сезон

Все сериалы

все сериалы на PB.wtf

RePack

FAR CRY 5
  

Активы (Агенты) / The Assets / Cезон: 1 / Серии: 1-4 из 8 (Джеф Т. Томас) [2014 г., Шпионский сериал, триллер, WEB-DLRip] DVO (HamsterStudio) pb.wtf

Активы через торрент pb.wtf

Размер: 1.89 GB | Добавлен: 6 лет 3 мес. назад | Торрент скачан:27 раз
Скачать  

14-08-2014 17:59 Активы Скачать торрент  

Активы (Агенты) / The AssetsГод выпуска: 2014
Страна: CША Baltic Film Services, Lincoln Square Productions
Жанр: Шпионский сериал, триллер
Продолжительность: 4 x ~ 00:40:00
Перевод: Любительский двухголосый (HamsterStudio)
Озвучка: Юлия Реутова и Андрей Жариков
Работа с видео, монтаж и сведение звука: Kiberline


Режиссер: Джеф Т. Томас
Продюссер: Линда Берман, Джефф Т. Томас, Гари Так
Сценарий: Алекс Бергер, Сара Бёрд, Эндрю Чэпма

Премьера в мире: 2 января 2014 В ролях: Джоди Уиттакер, Пол Рис, Харриет Уолтер, Стюарт Миллиган, Кристина Коул, Лекс Шрэпнел, Джулиан Овенден, Ральф Браун, Каталина Денис, Горан Костич

Описание: Восьмидесятые годы прошлого века. Холодная война между США и Советским союзом в самом разгаре. Америка стремиться разрушить СССР, крадет новейшие изобретения и планы правительства. Именно в это время разгораются самые настоящие шпионские войны. В Советском государстве было немало американских шпионах, внедренных во все сферы деятельности, но и СССР не отставали от них и вербовали своих разведчиков для работы на территории Штатов. История рассказывает о двух бдительных сотрудницах Центрального Разведывательного управления, которым удалось обнаружить и выследить крота в рядах ЦРУ, который регулярно сливал информацию советскому КГБ. Удастся ли им обезвредить шпиона? Фильм снят на основе реально происходящих событий.

Качество: WEB-DLRip
Формат: AVI
Видео кодек: XviD
Аудио кодек: MP3
Видео: Xvid 720x400, 23.98fps, 1 452 Kbps
Аудио#1: MPEG Audio Layer 3, 48000Hz, stereo, 128kbps Русский
Аудио#2: MPEG Audio Layer 3, 48000Hz, stereo, 128kbps Английский
Релиз от: zeka80






General
Complete name : H:\The.Assets.s01WEB-DLRip\The.Assets.s01e01.WEB-DLRip.avi
Format : AVI
Format/Info : Audio Video Interleave
File size : 499 MiB
Duration : 40mn 31s
Overall bit rate : 1 722 Kbps
Writing application : VirtualDubModRus 1.5.10.2 (build 2540/release)
Writing library : VirtualDubMod build 2540/release

Video
ID : 0
Format : MPEG-4 Visual
Format profile : Advanced Simple@L5
Format settings, BVOP : 1
Format settings, QPel : No
Format settings, GMC : No warppoints
Format settings, Matrix : Default (H.263)
Codec ID : XVID
Codec ID/Hint : XviD
Duration : 40mn 31s
Bit rate : 1 452 Kbps
Width : 720 pixels
Height : 400 pixels
Display aspect ratio : 16:9
Frame rate : 23.976 fps
Color space : YUV
Chroma subsampling : 4:2:0
Bit depth : 8 bits
Scan type : Progressive
Compression mode : Lossy
Bits/(Pixel*Frame) : 0.210
Stream size : 421 MiB (84%)
Writing library : XviD 1.2.1 (UTC 2008-12-04)

Audio #1
ID : 1
Format : MPEG Audio
Format version : Version 1
Format profile : Layer 3
Mode : Joint stereo
Mode extension : MS Stereo
Codec ID : 55
Codec ID/Hint : MP3
Duration : 40mn 31s
Bit rate mode : Constant
Bit rate : 128 Kbps
Channel(s) : 2 channels
Sampling rate : 48.0 KHz
Compression mode : Lossy
Stream size : 37.1 MiB (7%)
Alignment : Aligned on interleaves
Interleave, duration : 42 ms (1.00 video frame)
Interleave, preload duration : 504 ms

Audio #2
ID : 2
Format : MPEG Audio
Format version : Version 1
Format profile : Layer 3
Codec ID : 55
Codec ID/Hint : MP3
Duration : 40mn 31s
Bit rate mode : Constant
Bit rate : 128 Kbps
Channel(s) : 2 channels
Sampling rate : 48.0 KHz
Compression mode : Lossy
Stream size : 37.1 MiB (7%)
Alignment : Aligned on interleaves
Interleave, duration : 42 ms (1.00 video frame)
Interleave, preload duration : 504 ms
Writing library : LAME3.99r
Encoding settings : -m s -V 4 -q 2 -lowpass 17 -b 128

pb.wtf



Скачать Активы через торрент http://pic.kartinco.top/images/6/3186e.jpg Скачать фильм Активы через торрент бесплантно в хорошем качестве Описание: Восьмидесятые годы прошлого века. Холодная война между США и Советским союзом в самом разгаре. Америка стремиться разрушить СССР, ... 5 10 1
Торрент: Зарегистрирован [2014-08-14 17:59] · скачан: 27 раз
Статус: √ проверено
Размер: 1.89 GB
Как cкачать? Как скачать Активы через торрент | qTorrent

% Раздел Тема Автор DL S | L
Зарубежные сериалы [ 14.05 GB ] Активы / The Assets / Cезон: 1 / Серии: 1-8 из 8 [2014 WEB-DL 1080p] [MVO] killermax2013 Скачать
1 | 0
Гонзо [ 1.16 GB ] Большие активы 2 / Big Assets 2 [2013 All Sex Oral Anal Gonzo Big Butts DVDRip Оригинал] sheker187 Скачать
1 | 0

28-11-2019 20:33  

Отключить всю рекламу на сайте

    Дорогой пользователь! Огромная просьба, поблагодарите релизера, оцените раздачу и оставьте свои комментарий, если Вы скачали Активы через торрент бесплатно! Внесите свою лепту в развитие PiratBit!
    Комментировать посты могут только пользователи прошедшие не сложную регистрацию
    Показать сообщения:    

    Активы через торрент
    Скачать бесплатно Активы
    Активы скачать торрент
    Активы смотреть онлайн
    Cкачать фильм Активы бесплатно
    Активы скачать торрент в хорошем качестве
    Активы смотреть онлайн бесплатно в хорошем качестве


    Вы не можете начинать темы
    Вы не можете отвечать на сообщения
    Вы не можете редактировать свои сообщения
    Вы не можете удалять свои сообщения
    Вы не можете голосовать в опросах
    Вы не можете прикреплять файлы к сообщениям
    Вы можете скачивать файлы