2 сезон

iTunes

MVO

1

2 сезон

iTunes

iTunes

1 сезон

RePack

30

Новинка

ВАЖНО

ИГРА 18+

pack

RePack

MK11
pack

Легкие деньги

RePack

jed

RePack

fifa19

RePack

RDR2

RePack

NEED FOR SPEED™ PAYBACK

4 сезон

9 сезон

Бесстыжие 9 сезон

Все сериалы

все сериалы на PB.wtf

RePack

FAR CRY 5

Anonymous, доброе утро, мы не успеваем собрать деньги на оплату серверов за декабрь и январь, помогите нам пожалуйста в это трудное время. В качестве благодарности мы отключим Вам всю рекламу на сайте (укажите свой ник в строку Ваше имя)!

×
  
Magnet ссылка

Клипы Robbie Williams :Видео хиты / Robbie Williams - Videography (48 клипов) [1996-2011 г., Pop rock, soft rock, dance, DVD] pb.wtf

Клипы Robbie Williams :Видео хиты через торрент pb.wtf

Размер: 12.59 GB | Добавлен: 6 лет 5 мес. назад | Торрент скачан:44 раза
Скачать  

14-08-2014 22:26 Клипы Robbie Williams :Видео хиты Скачать торрент  

Клипы Robbie Williams :Видео хиты / Robbie Williams - Videography Год выпуска: 1996-2011 г.
Страна: Великобритания
Жанр: Pop rock, soft rock, dance
Продолжительность: 03:26:29
Перевод: Оригинал

В ролях: Robbie Williams

Описание: Робби Уильямс (Роберт Питер Уильямс родился 13 февраля 1974 в Stoke-on-Trent) – номинировался на Grammy и 15 раз становился лучшим автором и исполнителем песен в Британии. Его карьера началась в 1990 году в популярном бойз-бэнде «Take That», который он покинул в 1995, чтобы начать свою сольную карьеру (но вернулся с группой 15 июля 2010).

Робби за свою сольную карьеру продал самое больше количество альбомов и многократно становился лучшим певцом, чем кто-либо в истории Объединенного Королевства. Копии его альбомов разошлись более, чем в 59 млн. экземпляров по всему миру. Уильямс попал в Книгу Мировых Рекордов Гинесса, когда после объявления о мировом турне в 2006 году было продано 1,6 млн. билетов за один день. Он получил много наград, включая 15 BRIT и 7 наград ECHO awards. В 2004 году его внесли в Британский Зал музыкальной славы в качестве "лучшего певца 90-х".

Шесть его альбомов входят в Топ-100 наиболее продаваемых альбомов в Объединенном Королевстве. Кроме того, на сегодня он наиболее продаваемый певец не латинос в Латинской Америке с 3 млн. проданных копий альбомов. И самый успешный исполнитель в Европе в 21 веке, в Мире же - третий после Эминема и Бритни Спирс.

Уильямс - посол доброй воли UNICEF и организатор множества благотворительных компаний.
1996 - Everything Changes (Take That)
1996 - Freedom
1997 - Angels (US version)
1997 - Angels
1997 - Get the Joke
1997 - Heaven From Here
1997 - Lazy Days
1997 - Old Before I Die
1997 - South Of The Border
1998 - Let Me Entertain You
1998 - Millennium
1999 - It's Only Us
1999 - No Regrets
1999 - She's The One
1999 - Strong (live comp'd visuals)
2000 - Kids (Robbie Williams and Kylie Minogue)
2000 - Rock DJ
2000 - Supreme
2001 - Eternity
2001 - I Will Talk And Hollywood Will Listen (Live From Royal Albert Hall)
2001 - Let Love Be Your Energy
2001 - Mr Bojangles (Live From Royal Albert Hall)
2001 - Somethin' Stupid (Robbie Williams and Nicole Kidman)
2001 - The Road To Mandalay
2001 - We Are The Champions (Robbie Williams+Queen)_(OST A Knight's Tale)
2002 - Feel (colour version)
2002 - Feel
2002 - My culture (Robbie Williams & Maxi Jazz)
2003 - Come Undone
2003 - Me And My Monkey
2003 - Sexed Up
2003 - Something Beautiful
2004 - Misunderstood_(OST Bridget Jones - The Edge of Reason)
2004 - Radio
2005 - Advertising Space
2005 - A Place To Crash
2005 - Make Me Pure (live band shoot in a recording studio)
2005 - Tripping
2006 - Lovelight
2006 - Rudebox
2006 - She's Madonna
2006 - Sin Sin Sin
2009 - You Know Me
2009 - Close My Eyes (Sander Van Doorn Vs. Robbie Williams)
2009 - Bodies
2010 - Shame (Robbie Williams and Gary Barlow)
2010 - Morning Sun
2011 - Collision of World (Brad Paisley and Robbie Williams)_(OST Cars 2)
Качество: DVD
Формат: VOB
Видео кодек: MPEG Video
Аудио кодек: PCM
Видео: MPEG2, Video 720x576 (16:9), 25.00fps, 1 536 Kbps
Аудио: PCM, 48000Hz, stereo, 1536kbps
Релиз от: lloaderr






General
Complete name : H:\Robbie Williams - the Videography\2000 - Supreme.VOB
Format : MPEG-PS
File size : 298 MiB
Duration : 4mn 30s
Overall bit rate mode : Variable
Overall bit rate : 9 246 Kbps

Video
ID : 224 (0xE0)
Format : MPEG Video
Format version : Version 2
Format profile : Main@Main
Format settings, BVOP : Yes
Format settings, Matrix : Custom
Duration : 4mn 30s
Bit rate mode : Variable
Bit rate : 7 526 Kbps
Maximum bit rate : 9 800 Kbps
Width : 720 pixels
Height : 576 pixels
Display aspect ratio : 16:9
Frame rate : 25.000 fps
Standard : PAL
Color space : YUV
Chroma subsampling : 4:2:0
Bit depth : 8 bits
Scan type : Interlaced
Scan order : Top Field First
Compression mode : Lossy
Bits/(Pixel*Frame) : 0.726
Stream size : 243 MiB (81%)

Audio
ID : 189 (0xBD)-160 (0xA0)
Format : PCM
Format settings, Endianness : Big
Format settings, Sign : Signed
Muxing mode : DVD-Video
Duration : 4mn 30s
Bit rate mode : Constant
Bit rate : 1 536 Kbps
Channel(s) : 2 channels
Channel positions : Front: L R
Sampling rate : 48.0 KHz
Bit depth : 16 bits
Stream size : 49.5 MiB (17%)

Menu

pb.wtf



Скачать Клипы Robbie Williams :Видео хиты через торрент https://pic.kartinco.top/images/6/mcr3n.jpg Скачать фильм Клипы Robbie Williams :Видео хиты через торрент бесплантно в хорошем качестве Описание: Робби Уильямс (Роберт Питер Уильямс родился 13 февраля 1974 в Stoke-on-Trent) – номинировался на Grammy и 15 раз становился ... 10 10 3
Info! Золотая раздача, скачанное не засчитывается.
Торрент: Зарегистрирован [2014-08-14 22:26] · скачан: 44 раз
Статус: √ проверено
Размер: 12.59 GB
Как cкачать? Как скачать Клипы Robbie Williams :Видео хиты через торрент | UTorrent

28-11-2019 20:33  

Отключить всю рекламу на сайте

    Дорогой пользователь! Огромная просьба, поблагодарите релизера, оцените раздачу и оставьте свои комментарий, если Вы скачали Клипы Robbie Williams :Видео хиты через торрент бесплатно! Внесите свою лепту в развитие PiratBit!
    Комментировать посты могут только пользователи прошедшие не сложную регистрацию
    Показать сообщения:    

    Клипы Robbie Williams :Видео хиты через торрент
    Скачать бесплатно Клипы Robbie Williams :Видео хиты
    Клипы Robbie Williams :Видео хиты скачать торрент
    Клипы Robbie Williams :Видео хиты смотреть онлайн
    Cкачать фильм Клипы Robbie Williams :Видео хиты бесплатно
    Клипы Robbie Williams :Видео хиты скачать торрент в хорошем качестве
    Клипы Robbie Williams :Видео хиты смотреть онлайн бесплатно в хорошем качестве


    Вы не можете начинать темы
    Вы не можете отвечать на сообщения
    Вы не можете редактировать свои сообщения
    Вы не можете удалять свои сообщения
    Вы не можете голосовать в опросах
    Вы не можете прикреплять файлы к сообщениям
    Вы можете скачивать файлы