Ссылка на приватное зеркало нашего сайта всего за 1$. Внимание количество ограничено!!!

2 сезон

iTunes

1 сезон

1

iTunes

iTunes

iTunes

1 сезон

RePack

30

ИГРА 18+

pack

ВАЖНО

!!Акция!!

Alien_RageХит недели

RePack

MK11
pack

Забери бонус

RePack

jed

!!Акция!!

Alien_Rage

RePack

fifa19

RePack

Assassins Creed: Odyssey

RePack

NEED FOR SPEED™ PAYBACK

4 сезон

9 сезон

Бесстыжие 9 сезон

Все сериалы

все сериалы на PB.wtf

RePack

FAR CRY 5
  

Ползи, С.у.к.а, ползи / Crawl or Die (Oklahoma Ward) [2014, США, ужасы, фантастика, триллер, WEB-DLRip, Любительский (одноголосый) [Xixidok] pb.wtf

Ползи, С.у.к.а, ползи через торрент pb.wtf

Размер: 1.36 GB | Добавлен: 6 лет 2 мес. назад | Торрент скачан:331 раз
Скачать  

17-08-2014 03:03 Ползи, С.у.к.а, ползи Скачать торрент  

Ползи, С.у.к.а, ползи / Crawl or Die


  • Год выпуска: 2014
  • Страна: США
  • Жанр: ужасы, фантастика, триллер
  • Продолжительность: 01:30:04
  • Перевод: Любительский (одноголосый) [Xixidok]

  • Режиссер: Oklahoma Ward
  • В ролях:

    Николь Алонсо (Tank), Torey Byrne (Package), Tommy Ball (Doc), Уил Краун (Snoop), Дэвид Пол Бэйкер (Sniper), Том Чемберлен (Mic), Clayton Burgess (Big Guy), David Zeliff (General X), Larry Huitt (Thumper), Matthew Stephen Crabtree (Creature / Special Forces), Troy Bailey (Special Forces), Jonathan Dixon (Special Forces)

  • Описание:
    После получения задания - защитить последнюю женщину, способную забеременеть, элитное подразделение бойцов оказывается захвачено в бесконечную систему замкнутых подземных туннелей. Команда скоро узнает, что настоящий ужас с непреодолимой силой гонится за ними, а сам туннель становится всё меньше.
  • Рейтинг:



  • Качество: WEB-DLRip
  • Формат: :AVI
  • Видео кодек: XviD
  • Аудио кодек: AC3
  • Видео: 720x400 (16:9), 1634 kbps, 23,976 fps, 0,237 bpp
  • Аудио №1: Русский 2.0 / 44 kHz / 192 kbps / 16 bit
  • Аудио №2: Английский 2.0 / 48 kHz / 320 kbps / 16 bit
  • Релиз от: GEKADOL
    Не нашли то, что искали? Для вас "Стол заказов" "Жмём сюда!"

    Код:

    General
    Complete name                            : G:\Crawl.or.Die.2014.L1.WEB-DLRip.1400MB.avi
    Format                                   : AVI
    Format/Info                              : Audio Video Interleave
    File size                                : 1.36 GiB
    Duration                                 : 1h 30mn
    Overall bit rate                         : 2 161 Kbps
    Writing application                      : VirtualDubMod 1.5.10.3 | www.virtualdub-fr.org || (build 2550/release)
    Writing library                          : VirtualDubMod build 2550/release

    Video
    ID                                       : 0
    Format                                   : MPEG-4 Visual
    Format profile                           : Advanced Simple@L5
    Format settings, BVOP                    : 1
    Format settings, QPel                    : No
    Format settings, GMC                     : No warppoints
    Format settings, Matrix                  : Custom
    Codec ID                                 : XVID
    Codec ID/Hint                            : XviD
    Duration                                 : 1h 30mn
    Bit rate                                 : 1 635 Kbps
    Width                                    : 720 pixels
    Height                                   : 400 pixels
    Display aspect ratio                     : 16:9
    Frame rate                               : 23.976 fps
    Color space                              : YUV
    Chroma subsampling                       : 4:2:0
    Bit depth                                : 8 bits
    Scan type                                : Progressive
    Compression mode                         : Lossy
    Bits/(Pixel*Frame)                       : 0.237
    Stream size                              : 1.03 GiB (76%)
    Writing library                          : XviD 73

    Audio #1
    ID                                       : 1
    Format                                   : AC-3
    Format/Info                              : Audio Coding 3
    Mode extension                           : CM (complete main)
    Codec ID                                 : 2000
    Duration                                 : 1h 30mn
    Bit rate mode                            : Constant
    Bit rate                                 : 192 Kbps
    Channel(s)                               : 2 channels
    Channel positions                        : Front: L R
    Sampling rate                            : 44.1 KHz
    Bit depth                                : 16 bits
    Compression mode                         : Lossy
    Delay relative to video                  : 10ms
    Stream size                              : 124 MiB (9%)
    Alignment                                : Split accross interleaves
    Interleave, duration                     : 42 ms (1.00 video frame)
    Interleave, preload duration             : 500 ms

    Audio #2
    ID                                       : 2
    Format                                   : AC-3
    Format/Info                              : Audio Coding 3
    Mode extension                           : CM (complete main)
    Codec ID                                 : 2000
    Duration                                 : 1h 30mn
    Bit rate mode                            : Constant
    Bit rate                                 : 320 Kbps
    Channel(s)                               : 2 channels
    Channel positions                        : Front: L R
    Sampling rate                            : 48.0 KHz
    Bit depth                                : 16 bits
    Compression mode                         : Lossy
    Stream size                              : 206 MiB (15%)
    Alignment                                : Split accross interleaves
    Interleave, duration                     : 42 ms (1.00 video frame)
    Interleave, preload duration             : 500 ms


    Скриншоты:


    pb.wtf



  • Скачать Ползи, С.у.к.а, ползи через торрент http://i68.fastpic.ru/big/2014/0817/7f/c90d7be9f3042614d70857307768927f.jpg Скачать фильм Ползи, С.у.к.а, ползи через торрент бесплантно в хорошем качестве Описание: После получения задания - защитить последнюю женщину, способную забеременеть, элитное подразделение бойцов оказывается захвачено ... 6.8 10 9
    Торрент: Зарегистрирован [2014-08-17 03:03] · скачан: 331 раз
    Статус: T временная
    Размер: 1.36 GB
    Как cкачать? Как скачать Ползи, С.у.к.а, ползи через торрент | qTorrent



    Последний раз редактировалось: GEKADOL (2014-08-17 04:59), всего редактировалось 1 раз

    28-11-2019 20:33  

    Отключить всю рекламу на сайте

    17-08-2014 05:11 Ползи, С.у.к.а, ползи Скачать торрент  

    фильм развивающий клаустрофобию -наблюдаем сочувствуем мучениям
    блондиночке в топике ползающей по щелям от страшных звуков монстра аналог фильма -пещеры посмотрел на перемоткахpb.wtf



      Дорогой пользователь! Огромная просьба, поблагодарите релизера, оцените раздачу и оставьте свои комментарий, если Вы скачали Ползи, С.у.к.а, ползи через торрент бесплатно! Внесите свою лепту в развитие PiratBit!
      Комментировать посты могут только пользователи прошедшие не сложную регистрацию
      Показать сообщения:    

      Ползи, С.у.к.а, ползи через торрент
      Скачать бесплатно Ползи, С.у.к.а, ползи
      Ползи, С.у.к.а, ползи скачать торрент
      Ползи, С.у.к.а, ползи смотреть онлайн
      Cкачать фильм Ползи, С.у.к.а, ползи бесплатно
      Ползи, С.у.к.а, ползи скачать торрент в хорошем качестве
      Ползи, С.у.к.а, ползи смотреть онлайн бесплатно в хорошем качестве


      Вы не можете начинать темы
      Вы не можете отвечать на сообщения
      Вы не можете редактировать свои сообщения
      Вы не можете удалять свои сообщения
      Вы не можете голосовать в опросах
      Вы не можете прикреплять файлы к сообщениям
      Вы можете скачивать файлы