Ссылка на приватное зеркало нашего сайта всего за 1$. Внимание количество ограничено!!!

2 сезон

iTunes

1 сезон

1

iTunes

iTunes

iTunes

1 сезон

RePack

30

ИГРА 18+

pack

ВАЖНО

!!Акция!!

Alien_RageХит недели

RePack

MK11
pack

Забери бонус

RePack

jed

!!Акция!!

Alien_Rage

RePack

fifa19

RePack

Assassins Creed: Odyssey

RePack

NEED FOR SPEED™ PAYBACK

4 сезон

9 сезон

Бесстыжие 9 сезон

Все сериалы

все сериалы на PB.wtf

RePack

FAR CRY 5
  

Считанные часы / Побеждая время / Hours (Эрик Хайссерер / Eric Heisserer) [2013, США, триллер, драма, BDRip 720p-AVC, MVO] [Лицензия] pb.wtf

Считанные часы через торрент pb.wtf

Размер: 4.63 GB | Добавлен: 6 лет 2 мес. назад | Торрент скачан:427 раз
Скачать  

17-08-2014 03:12 Считанные часы Скачать торрент  

Считанные часы / Побеждая время / Hours
«Дорога каждая секунда»


  • Год выпуска: 2013
  • Страна: США
  • Жанр: триллер, драма
  • Продолжительность: 01:37:04
  • Перевод: Профессиональный многоголосый закадровый) [Лицензия]

  • Режиссер: Эрик Хайссерер / Eric Heisserer
  • В ролях:

    Пол Уокер (Nolan Hayes), Дженезис Родригез (Abigail), Нэнси Нейв (Sandra), Шэйн Якобсен (Marc), Наталия Ярожик (Karen), Тиджей Хассан (Jeremy), Лена Кларк (Lucy), Кеша Баллард (Nurse), Йоханс Майлс (Dr. Edmonds), Джудд Лорманд (Glenn), Тони Бентли (Doctor), Йен Хоч (Resident)

  • Описание:
    Новый Орлеан. Август 2005-го. Смертоносная «Катрина» сметает все на своем пути. Отец изо всех сил пытается спасти свою дочь. Он понимает, что справиться со стихией, остановить беспощадный ураган не в его силах. На спасение дочери остаются считаные часы...
  • Рейтинг:



  • Качество: BDRip 720p-AVC
  • Формат: :MKV
  • Видео кодек: AVC
  • Аудио кодек: AC3, DTS
  • Видео: 1280x536 (2.40:1), 4944 kbps, 23,976 fps, 0,301 bpp
  • Аудио №1: русский / 5.1 / 48 kHz / 384 kbps / 16 bit
  • Аудио №2: английский / 5.1 / 48 kHz / 1510 kbps / 24 bit
  • Релиз от: GEKADOL
    Не нашли то, что искали? Для вас "Стол заказов" "Жмём сюда!"

    Код:

    General
    Unique ID                                : 240344754677870196341506873306005044558 (0xB4D0B74BD84BD52CB410F065AF42FD4E)
    Complete name                            : G:\Pobejdaya.vremya.2013.D.BDRip.720p.mkv
    Format                                   : Matroska
    Format version                           : Version 4 / Version 2
    File size                                : 4.63 GiB
    Duration                                 : 1h 37mn
    Overall bit rate                         : 6 830 Kbps
    Encoded date                             : UTC 2014-08-16 08:33:44
    Writing application                      : mkvmerge v7.1.0 ('Good Love') 64bit built on Jul 27 2014 13:06:55
    Writing library                          : libebml v1.3.0 + libmatroska v1.4.1
    DURATION                                 : 01:37:04.160000000
    NUMBER_OF_FRAMES                         : 182005
    NUMBER_OF_BYTES                          : 279559680
    _STATISTICS_WRITING_APP                  : mkvmerge v7.1.0 ('Good Love') 64bit built on Jul 27 2014 13:06:55
    _STATISTICS_WRITING_DATE_UTC             : 2014-08-16 08:33:44
    _STATISTICS_TAGS                         : BPS DURATION NUMBER_OF_FRAMES NUMBER_OF_BYTES

    Video
    ID                                       : 1
    Format                                   : AVC
    Format/Info                              : Advanced Video Codec
    Format profile                           : High@L4.1
    Format settings, CABAC                   : Yes
    Format settings, ReFrames                : 5 frames
    Codec ID                                 : V_MPEG4/ISO/AVC
    Duration                                 : 1h 37mn
    Bit rate                                 : 4 944 Kbps
    Width                                    : 1 280 pixels
    Height                                   : 536 pixels
    Display aspect ratio                     : 2.40:1
    Frame rate                               : 23.976 fps
    Color space                              : YUV
    Chroma subsampling                       : 4:2:0
    Bit depth                                : 8 bits
    Scan type                                : Progressive
    Bits/(Pixel*Frame)                       : 0.301
    Stream size                              : 3.25 GiB (70%)
    Writing library                          : x264 core 133 r2334+704+50 a7549b7 tMod [8-bit@4:2:0 X86_64]
    Encoding settings                        : cabac=1 / ref=5 / deblock=1:-3:-3 / analyse=0x3:0x113 / me=umh / subme=7 / psy=1 / fade_compensate=0.00 / psy_rd=1.00:0.00 / mixed_ref=1 / me_range=16 / chroma_me=1 / trellis=1 / 8x8dct=1 / cqm=0 / deadzone=21,11 / fast_pskip=1 / chroma_qp_offset=-2 / threads=16 / lookahead_threads=2 / sliced_threads=0 / nr=0 / decimate=1 / interlaced=0 / bluray_compat=0 / constrained_intra=0 / fgo=0 / bframes=3 / b_pyramid=2 / b_adapt=1 / b_bias=0 / direct=3 / weightb=1 / open_gop=0 / weightp=2 / keyint=240 / keyint_min=23 / scenecut=40 / intra_refresh=0 / rc_lookahead=50 / rc=2pass / mbtree=1 / bitrate=4944 / ratetol=1.0 / qcomp=0.60 / qpmin=0 / qpmax=69 / qpstep=4 / cplxblur=20.0 / qblur=0.5 / ip_ratio=1.40 / aq=4:1.00 / aq-sensitivity=10.00 / aq-factor=1.00:1.00:1.00 / aq2=0 / aq3=0
    Language                                 : English
    Default                                  : Yes
    Forced                                   : No
    DURATION                                 : 01:36:59.814000000
    NUMBER_OF_FRAMES                         : 139536
    NUMBER_OF_BYTES                          : 3592890337
    _STATISTICS_WRITING_APP                  : mkvmerge v7.1.0 ('Good Love') 64bit built on Jul 27 2014 13:06:55
    _STATISTICS_WRITING_DATE_UTC             : 2014-08-16 08:33:44
    _STATISTICS_TAGS                         : BPS DURATION NUMBER_OF_FRAMES NUMBER_OF_BYTES

    Audio #1
    ID                                       : 2
    Format                                   : AC-3
    Format/Info                              : Audio Coding 3
    Mode extension                           : CM (complete main)
    Codec ID                                 : A_AC3
    Duration                                 : 1h 37mn
    Bit rate mode                            : Constant
    Bit rate                                 : 384 Kbps
    Channel(s)                               : 6 channels
    Channel positions                        : Front: L C R, Side: L R, LFE
    Sampling rate                            : 48.0 KHz
    Bit depth                                : 16 bits
    Compression mode                         : Lossy
    Stream size                              : 267 MiB (6%)
    Language                                 : Russian
    Default                                  : Yes
    Forced                                   : No

    Audio #2
    ID                                       : 3
    Format                                   : DTS
    Format/Info                              : Digital Theater Systems
    Codec ID                                 : A_DTS
    Duration                                 : 1h 37mn
    Bit rate mode                            : Constant
    Bit rate                                 : 1 510 Kbps
    Channel(s)                               : 6 channels
    Channel positions                        : Front: L C R, Side: L R, LFE
    Sampling rate                            : 48.0 KHz
    Bit depth                                : 24 bits
    Compression mode                         : Lossy
    Stream size                              : 1.02 GiB (22%)
    Language                                 : English
    Default                                  : No
    Forced                                   : No

    Menu
    00:00:00.000                             : en:00:00:00.000
    00:07:04.591                             : en:00:07:04.591
    00:15:39.230                             : en:00:15:39.230
    00:23:37.166                             : en:00:23:37.166
    00:32:11.429                             : en:00:32:11.429
    00:40:26.424                             : en:00:40:26.424
    00:49:04.525                             : en:00:49:04.525
    00:56:11.368                             : en:00:56:11.368
    01:04:57.268                             : en:01:04:57.268
    01:14:31.926                             : en:01:14:31.926
    01:23:40.432                             : en:01:23:40.432
    01:32:41.139                             : en:01:32:41.139


    Скриншоты:


    pb.wtf



  • Скачать Считанные часы через торрент http://i64.fastpic.ru/big/2014/0817/5a/2addd88bb0f5c63ca3cd7e717147c35a.jpg Скачать фильм Считанные часы через торрент бесплантно в хорошем качестве Описание: Новый Орлеан. Август 2005-го. Смертоносная «Катрина» сметает все на своем пути. Отец изо всех сил пытается спасти свою дочь. Он ... 10 10 16
    Info! Золотая раздача, скачанное не засчитывается.
    Торрент: Зарегистрирован [2014-08-17 03:12] · скачан: 427 раз
    Статус: √ проверено
    Размер: 4.63 GB
    Как cкачать? Как скачать Считанные часы через торрент | qTorrent

    % Раздел Тема Автор DL S | L
    Фильмы 2013 [DVDrip, WEB-DLRip, HDrip] [ 1.42 GB ] Побеждая время / Считанные часы / Hours [2013 HDRip-AVC MVO [лицензия] От R.G. PiratFilms White Smoke Скачать
    1 | 0
    Фильмы 2013 [DVDrip, WEB-DLRip, HDrip] [ 2.13 GB ] Побеждая время / Считанные часы / Hours [2013 BDRip-AVC] MVO () sokol_ok Скачать
    2 | 0
    Фильмы (Blu-ray, BD-Remux, HDDVD) [ 15.28 GB ] Побеждая время / Считанные часы / Hours [2013 BD Remux] MVO+ENG GEKADOL Скачать
    1 | 0
    Фильмы 2013 [DVDrip, WEB-DLRip, HDrip] [ 746 MB ] Побеждая время / Считанные часы / Hours [2013 BDRip-AVC] MVO () sokol_ok Скачать
    2 | 0
    Фильмы 2013 [DVDrip, WEB-DLRip, HDrip] [ 1.46 GB ] Побеждая время / Считанные часы / Hours [2013 BDRip-AVC] MVO () sokol_ok Скачать
    2 | 0
    Фильмы 2013 [DVDrip, WEB-DLRip, HDrip] [ 2.14 GB ] Побеждая время / Считанные часы / Hours [2013 BDRip-AVC] MVO [] potroks Скачать
    1 | 0
    Фильмы 2013 [DVDrip, WEB-DLRip, HDrip] [ 1.46 GB ] Считанные часы / Побеждая время / Hours [2013 HDRip MVO] [] GEKADOL Скачать
    1 | 0

    28-11-2019 20:33  

    Отключить всю рекламу на сайте

    17-08-2014 11:07 Считанные часы Скачать торрент  

    Трейлер на Кинопоиске шикарный, надеюсь, что годное кинцоpb.wtf



    18-08-2014 14:18 Считанные часы Скачать торрент  

    Rokk5et писал(а):

    Трейлер на Кинопоиске шикарный, надеюсь, что годное кинцо

    Слишком толсто!
    Второсортное говнище с дохлым псевдоактером смотреть даже не буду!pb.wtf



    19-08-2014 16:12 Считанные часы Скачать торрент  

    london1 писал(а):

    Rokk5et писал(а):

    Трейлер на Кинопоиске шикарный, надеюсь, что годное кинцо

    Слишком толсто!
    Второсортное говнище с дохлым псевдоактером смотреть даже не буду!

    Херов псевдо кинокритикpb.wtf



    20-08-2014 20:35 Считанные часы Скачать торрент  

    когда 1920х1080 ожидать?pb.wtf



    13-09-2014 14:45 Считанные часы Скачать торрент  

    Отличный фильм и Крепкая игра Уокера.pb.wtf



      1. Оскорблять Пользователей и Администрацию трекера в любой форме, а так же обсуждать действия администрации., выдал Ворон  Мат в чате!!!, выдал Ворон  http://puu.sh/cHvkO/22d9148be9.jpg При обсуждении в чате ЗАПРЕЩАЕТСЯ! Добавлять ссылки на картинки или видео-ролики содержащие порнографию., выдал Ворон

    18-09-2016 09:30 Считанные часы Скачать торрент  

    Товарисчи!!!! Дайте до качать, пожалуйста. уже неделю висит 17%pb.wtf



      Дорогой пользователь! Огромная просьба, поблагодарите релизера, оцените раздачу и оставьте свои комментарий, если Вы скачали Считанные часы через торрент бесплатно! Внесите свою лепту в развитие PiratBit!
      Комментировать посты могут только пользователи прошедшие не сложную регистрацию
      Показать сообщения:    

      Считанные часы через торрент
      Скачать бесплатно Считанные часы
      Считанные часы скачать торрент
      Считанные часы смотреть онлайн
      Cкачать фильм Считанные часы бесплатно
      Считанные часы скачать торрент в хорошем качестве
      Считанные часы смотреть онлайн бесплатно в хорошем качестве


      Вы не можете начинать темы
      Вы не можете отвечать на сообщения
      Вы не можете редактировать свои сообщения
      Вы не можете удалять свои сообщения
      Вы не можете голосовать в опросах
      Вы не можете прикреплять файлы к сообщениям
      Вы можете скачивать файлы