2 сезон

iTunes

MVO

1

2 сезон

iTunes

iTunes

1 сезон

RePack

30

Ultimate

ВАЖНО

ИГРА 18+

pack

RePack

MK11
pack

Легкие деньги

RePack

jed

RePack

fifa19

RePack

RDR2

RePack

NEED FOR SPEED™ PAYBACK

4 сезон

9 сезон

Бесстыжие 9 сезон

Все сериалы

все сериалы на PB.wtf

RePack

FAR CRY 5

Anonymous, доброй ночи, мы не успеваем собрать деньги на оплату серверов за декабрь и январь, помогите нам пожалуйста в это трудное время. В качестве благодарности мы отключим Вам всю рекламу на сайте (укажите свой ник в строку Ваше имя)!

×
  
Magnet ссылка

Любовь по рецепту и без / Better Living Through Chemistry (Джофф Мур, Дэвид Посаментир) [2014 г., драма, комедия, HDRip, Дубляж, Лицензия] pb.wtf

Любовь по рецепту и без через торрент pb.wtf

Размер: 530 MB | Добавлен: 6 лет 5 мес. назад | Торрент скачан:13 раз
Скачать  

17-08-2014 04:48 Любовь по рецепту и без Скачать торрент  

Любовь по рецепту и без / Better Living Through Chemistry

Год выпуска: 2014
Страна: США, Великобритания
Производство: Aegis Film Fund, Altus Productions, Ealing Metro International, Occupant Films
Жанр: Драма, комедия
Продолжительность: 01:31:43
Перевод: Дубляж, Лицензия

Режиссер: Джофф Мур, Дэвид Посаментир
Продюссер: Фелипе Марино, Джо Нюротер, Пол Бретт
Сценарий: Джофф Мур, Дэвид Посаментир
Бюджет: $5 000 000
Премьера в мире: 14 марта 2014

IMDB 6.20 (4855)


В ролях: Сэм Рокуэлл, Оливия Уайлд, Мишель Монахэн, Бен Шварц, Кен Ховард, Джейн Фонда, Рэй Лиотта, Норберт Лео Батц, Дженн Харрис, Харрисон Хольцер, Даниил Эльдаров, Сергей Чихачев

Описание: Даг Варни — скромный фармацевт и подкаблучник. Всю жизнь окружающие пользовались его мягким характером и не принимали всерьёз. Но однажды произошла встреча, которая изменила всё. Её зовут Элизабет, она яркая, сексуальная, а ее девиз: «Жить нужно в кайф!». Она открыла глаза Дагу на то, что вся его жизнь сера и уныла, а ключ к успеху лежит у него перед носом. Стоит лишь протянуть руку. С этого момента Дага не узнать. Теперь он уверен в себе, женщины без ума от него в постели, а в спорте ему нет равных. Но увлекшись своей новой жизнью, он заходит слишком далеко, а, как известно, за все в жизни приходится платить.



Качество: HDRip
Формат: MP4
Видео кодек: AVC
Аудио кодек: AAC LC
Видео: AVC, 640x264 (2.40:1), 23.976 fps, 675 Kbps (0.167 bit/pixel)
Аудио: AAC LC, 48.0 KHz, 2 ch, 128 Kbps, VBR
x264 [info]: profile High, level 4.1
x264 [info]: frame I:1306 Avg QP:13.15 size: 37771
x264 [info]: frame P:27758 Avg QP:16.63 size: 8882
x264 [info]: frame B:102888 Avg QP:21.17 size: 1635
x264 [info]: consecutive B-frames: 1.9% 1.9% 7.1% 24.4% 17.4% 34.2% 4.5% 3.3% 1.0% 2.0% 2.0% 0.6%
x264 [info]: ref P L0: 53.6% 11.5% 13.0% 6.5% 4.4% 4.0% 2.9% 2.1% 1.8% 0.2% 0.0%
x264 [info]: ref B L0: 78.5% 9.1% 5.2% 2.4% 2.0% 1.5% 0.9% 0.3%
x264 [info]: ref B L1: 92.4% 7.6%
x264 [info]: kb/s:674.66
Format : MPEG-4
Format profile : Base Media
Codec ID : isom
File size : 530 MiB
Duration : 1h 31mn
Overall bit rate mode : Variable
Overall bit rate : 808 Kbps
Writing application : Lavf53.19.0

Video
ID : 1
Format : AVC
Format/Info : Advanced Video Codec
Format profile : High@L4.1
Format settings, CABAC : Yes
Format settings, ReFrames : 9 frames
Codec ID : avc1
Codec ID/Info : Advanced Video Coding
Duration : 1h 31mn
Source duration : 5mn 49s
Bit rate : 675 Kbps
Width : 640 pixels
Height : 264 pixels
Display aspect ratio : 2.40:1
Frame rate mode : Constant
Frame rate : 23.976 fps
Color space : YUV
Chroma subsampling : 4:2:0
Bit depth : 8 bits
Scan type : Progressive
Bits/(Pixel*Frame) : 0.167
Stream size : 443 MiB (83%)
Source stream size : 443 MiB (83%)
Writing library : x264 core 130 r2273 b3065e6
Encoding settings : cabac=1 / ref=9 / deblock=1:-3:-3 / analyse=0x3:0x133 / me=umh /
subme=9 / psy=1 / psy_rd=1.00:0.00 / mixed_ref=1 / me_range=24 / chroma_me=1 / trellis=2 /
8x8dct=1 / cqm=0 / deadzone=21,11 / fast_pskip=1 / chroma_qp_offset=-2 / threads=3 /
lookahead_threads=1 / sliced_threads=0 / nr=0 / decimate=1 / interlaced=0 / bluray_compat=0 /
constrained_intra=0 / bframes=11 / b_pyramid=2 / b_adapt=2 / b_bias=0 / direct=1 / weightb=1 /
open_gop=0 / weightp=2 / keyint=250 / keyint_min=23 / scenecut=40 / intra_refresh=0 /
rc_lookahead=60 / rc=crf / mbtree=1 / crf=17.0 / qcomp=0.60 / qpmin=0 / qpmax=69 / qpstep=4 /
ip_ratio=1.40 / aq=1:1.00
mdhd_Duration : 5503507

Audio
ID : 2
Format : AAC
Format/Info : Advanced Audio Codec
Format profile : LC
Codec ID : 40
Duration : 1h 31mn
Bit rate mode : Variable
Bit rate : 128 Kbps
Channel(s) : 2 channels
Channel positions : Front: L R
Sampling rate : 48.0 KHz
Compression mode : Lossy
Delay relative to video : 83ms
Stream size : 84.0 MiB (16%)
Сэмпл / Трейлер pb.wtf



Скачать Любовь по рецепту и без через торрент http://i67.fastpic.ru/big/2014/0817/c5/5d299f79ff3935f61d5fe09daec589c5.png Скачать фильм Любовь по рецепту и без через торрент бесплантно в хорошем качестве Описание: Даг Варни — скромный фармацевт и подкаблучник. Всю жизнь окружающие пользовались его мягким характером и не принимали всерьёз. Но ... 10 10 3
Торрент: Зарегистрирован [2014-08-17 04:48] · скачан: 13 раз
Статус: √ проверено
Размер: 530 MB
Как cкачать? Как скачать Любовь по рецепту и без через торрент | UTorrent

% Раздел Тема Автор DL S | L
Фильмы 2014 [DVDrip, WEB-DLRip, HDrip] [ 1.46 GB ] Любовь по рецепту и без / Better Living Through Chemistry [2014 HDRip ] кэп Скачать
1 | 0
Фильмы 2014 [DVDrip, WEB-DLRip, HDrip] [ 2.19 GB ] Любовь по рецепту и без / Любовь секс и химия / Better Living Through Chemistry [2014 BDRip-AVC] Dub sokol_ok Скачать
2 | 0
Фильмы 2014 [DVDrip, WEB-DLRip, HDrip] [ 747 MB ] Любовь по рецепту и без / Любовь секс и химия / Better Living Through Chemistry [2014 BDRip-AVC] Dub sokol_ok Скачать
2 | 0
Фильмы (DVD фильмы) [ 4.17 GB ] Любовь по рецепту и без / Better Living Through Chemistry [2014 DVD5] R5 voovaz Скачать
1 | 0
Фильмы 2014 [DVDrip, WEB-DLRip, HDrip] [ 1.46 GB ] Любовь по рецепту и без / Любовь секс и химия / Better Living Through Chemistry [2014 BDRip-AVC] Dub sokol_ok Скачать
2 | 0
Фильмы [HD 720p, 1080p] (Хороший звук DUB, MVO) [ 4.4 GB ] Любовь по рецепту и без / Better Living Through Chemistry [2013 BDRip 720p] DUB GEKADOL Скачать
1 | 0

28-11-2019 20:33  

Отключить всю рекламу на сайте

    Дорогой пользователь! Огромная просьба, поблагодарите релизера, оцените раздачу и оставьте свои комментарий, если Вы скачали Любовь по рецепту и без через торрент бесплатно! Внесите свою лепту в развитие PiratBit!
    Комментировать посты могут только пользователи прошедшие не сложную регистрацию
    Показать сообщения:    

    Любовь по рецепту и без через торрент
    Скачать бесплатно Любовь по рецепту и без
    Любовь по рецепту и без скачать торрент
    Любовь по рецепту и без смотреть онлайн
    Cкачать фильм Любовь по рецепту и без бесплатно
    Любовь по рецепту и без скачать торрент в хорошем качестве
    Любовь по рецепту и без смотреть онлайн бесплатно в хорошем качестве


    Вы не можете начинать темы
    Вы не можете отвечать на сообщения
    Вы не можете редактировать свои сообщения
    Вы не можете удалять свои сообщения
    Вы не можете голосовать в опросах
    Вы не можете прикреплять файлы к сообщениям
    Вы можете скачивать файлы