Ссылка на приватное зеркало всего за 1$. Внимание количество ограничено!!!

iTunes

iTunes

iTunes

1

iTunes

iTunes

iTunes

WEBRip

iTunes

30
pack

$ от Little Big

ВАЖНО

!!Акция!!

Alien_RageХит недели

RePack

Resident Evil 21

ИГРА 18+

pack

RePack

jed

!!Акция!!

Alien_Rage

RePack

fifa19

RePack

Assassins Creed: Odyssey

RePack

NEED FOR SPEED™ PAYBACK

4 сезон

9 сезон

Бесстыжие 9 сезон

Все сериалы

все сериалы на PB.wtf

RePack

FAR CRY 5
  

Нулевой километр (Павел Санаев) [2007, Россия, триллер, драма, мелодрама, DVDRip, Оригинальный] pb.wtf

Нулевой километр через торрент pb.wtf

Размер: 1.37 GB | Добавлен: 5 лет 11 мес. назад | Торрент скачан:96 раз
Скачать  

17-08-2014 05:59 Нулевой километр Скачать торрент  

Нулевой километр

Год выпуска: 2007
Страна: Россия
Жанр: триллер, драма, мелодрама
Продолжительность: 01:26:15
Перевод: Оригинальный
Субтитры: Нет
Режиссер: Павел Санаев
В ролях: Александр Лымарев (Костя), Светлана Ходченкова (Алина), Иван Жидков (Олег), Константин Крюков (Артур), Дмитрий Нагиев (Борисыч), Дмитрий Голубочкин, Карина Иванова (блондинка), София Каштанова (брюнетка), Елена Аросьева (Суслик), Михаил Полицеймако (менеджер Стас), Ева Польна, Поля Полякова (Юля)
Описание:
Современная история о двух молодых ребятах, которые приехали «покорять Москву». Целеустремленный Костя мечтает стать клипмейкером. Пронырливый Олег видит свой успех в солидном материальном достатке.
Оба получают шанс воплотить свои мечты в реальность, но любовь с первого взгляда, вспыхнувшая между Костей и очаровательной молодой балериной Алиной, вытрясает из шкафов столько скелетов, что легкая мелодрама превращается в триллер с элементами боевика.
Предать и простить предательство, стать невольным убийцей и спастись от верной смерти, добиться главного в жизни шанса, и принести этот шанс в жертву любви - вот ставки по которым придется играть нашим героям.
Рейтинг


Качество: DVDRip
Формат: AVI
Видео кодек: XviD
Аудио кодек:AC3
Видео: XviD, 672x368 (16:9), 1813 kbps, 25 fps, 0,293 bpp
Аудио: русский / AC3 / 5.1 / 48 kHz / 448 kbps / 16 bit
Общее
Полное имя : E:\ФИЛЬМЫ\nulevoj.kilometr.DVDRip.avi
Формат : AVI
Формат/Информация : Audio Video Interleave
Размер файла : 1,37 Гбайт
Продолжительность : 1 ч. 26 м.
Общий поток : 2268 Кбит/сек
Программа кодирования : VirtualDubMod 1.5.4.1 (build 2178/release)
Библиотека кодирования : VirtualDubMod build 2178/release

Видео
Идентификатор : 0
Формат : MPEG-4 Visual
Профиль формата : Advanced Simple@L5
Параметр BVOP формата : 1
Параметр QPel формата : Нет
Параметр GMC формата : Без точки перехода
Параметр матрицы формата : Выборочная
Идентификатор кодека : XVID
Идентификатор кодека/Подсказка : XviD
Продолжительность : 1 ч. 26 м.
Битрейт : 1813 Кбит/сек
Ширина : 672 пикселя
Высота : 368 пикселей
Соотношение сторон : 1,85:1
Частота кадров : 25,000 кадров/сек
Цветовое пространство : YUV
Субдискретизация насыщенности : 4:2:0
Битовая глубина : 8 бит
Тип развёртки : Прогрессивная
Метод сжатия : С потерями
Бит/(Пиксели*Кадры) : 0.293
Размер потока : 1,09 Гбайт (80%)
Библиотека кодирования : XviD 1.2.0.dev47 (UTC 2006-11-01)

Аудио
Идентификатор : 1
Формат : AC-3
Формат/Информация : Audio Coding 3
Расширение режима : CM (complete main)
Параметр Endianness формата : Big
Идентификатор кодека : 2000
Продолжительность : 1 ч. 26 м.
Вид битрейта : Постоянный
Битрейт : 448 Кбит/сек
Каналы : 6 каналов
Расположение каналов : Front: L C R, Side: L R, LFE
Частота : 48,0 КГц
Битовая глубина : 16 бит
Метод сжатия : С потерями
Размер потока : 276 Мбайт (20%)
Выравнивание : Разделение по промежуткам
Продолжительность промежутка : 96 мс. (2,40 видеокадра)
Время предзагрузки промежутка : 96 мс.
Язык : Russian
pb.wtf



Скачать Нулевой километр через торрент http://pic.kartinco.top/new/img/2014-08/17/pyc7e2o2gc8alz219w8avh9is.jpg Скачать фильм Нулевой километр через торрент бесплантно в хорошем качестве Описание: Современная история о двух молодых ребятах, которые приехали «покорять Москву». Целеустремленный Костя мечтает стать ... 10 10 5
Info! Золотая раздача, скачанное не засчитывается.
Торрент: Зарегистрирован [2014-08-17 05:59] · скачан: 96 раз
Статус: √ проверено
Размер: 1.37 GB
Как cкачать? Как скачать Нулевой километр через торрент | qTorrent

% Раздел Тема Автор DL S | L
Наши фильмы, до 2010 [ 2.13 GB ] Нулевой километр [2007 DVDRip-AVC] bober100 Скачать
1 | 0
Фильмы 2001-2005 [ 1.36 GB ] Нулевой километр [2005 военный DVDRip] Ворон Скачать
1 | 0
Фильмы 2006-2008 [ 744 MB ] Нулевой километр [2007 DVDRip] -Rangers- Скачать
1 | 0

28-11-2019 20:33  

Отключить всю рекламу на сайте

17-08-2014 06:15 Нулевой километр Скачать торрент  

драма. есть в жизни контрольные точки где можно сделать лучший из худший выборов. герой попал в положение цугцванг своей жизни.pb.wtf



    Дорогой пользователь! Огромная просьба, поблагодарите релизера, оцените раздачу и оставьте свои комментарий, если Вы скачали Нулевой километр через торрент бесплатно! Внесите свою лепту в развитие PiratBit!
    Комментировать посты могут только пользователи прошедшие не сложную регистрацию
    Показать сообщения:    

    Нулевой километр через торрент
    Скачать бесплатно Нулевой километр
    Нулевой километр скачать торрент
    Нулевой километр смотреть онлайн
    Cкачать фильм Нулевой километр бесплатно
    Нулевой километр скачать торрент в хорошем качестве
    Нулевой километр смотреть онлайн бесплатно в хорошем качестве


    Вы не можете начинать темы
    Вы не можете отвечать на сообщения
    Вы не можете редактировать свои сообщения
    Вы не можете удалять свои сообщения
    Вы не можете голосовать в опросах
    Вы не можете прикреплять файлы к сообщениям
    Вы можете скачивать файлы