Anonymous, доброе утро, присоединяйтесь к нам в Telegram!, здесь всегда актуальный адрес сайта, оперативная поддержка и многое другое!

>

5.6

iTunes

7.4

iTunes

5.7

MVO

1

7.7

1 сезон

6.8

iTunes

7.3

1 сезон

13

6.7

1 сезон

8.3

RePack

30

ULTIMATE

pack

9.9

Лицензия

ВАЖНО

ИГРА 18+

pack

7.3

RePack

MK11

7.7

RePack

jed

7.8

RePack

fifa19

8.5

RePack

RDR2

RePack

NEED FOR SPEED™ PAYBACK

4 сезон

9 сезон

Бесстыжие 9 сезон

Все сериалы

все сериалы на PB.wtf

RePack

FAR CRY 5

Anonymous, доброе утро, мы катастрофически не успеваем собрать деньги на оплату серверов, помогите нам пожалуйста 5,10,15р., для нас важна любая помощь . В качестве благодарности мы отключим Вам всю рекламу на сайте (укажите свой ник в строку Ваше имя)!

×
  
Magnet ссылка

Трилогия Оушена / Ocean's Trilogy (Стивен Содерберг / Steven Soderbergh) [2001-2007, США, триллер, криминал, BDRip 720p / 60 FPS, Дубляж] pb.wtf

Трилогия Оушена через торрент pb.wtf

Размер: 24.82 GB | Добавлен: 7 лет 1 мес. назад | Торрент скачан:47 раз
Смотреть онлайн Трилогия Оушена | Скачать    Ребята, помогите собрать деньги на оплату серверов!!!

17-08-2014 07:36 Трилогия Оушена Скачать торрент  

Перед скачиванием обязательно проверьте Сэмплы на своем оборудовании.
Raven за помощ при создании релиза и обложек
Одиннадцать друзей Оушена / Ocean's Eleven«Делайте ваши ставки»



Год выпуска: 2001
Страна: США
Жанр: триллер, криминал
Продолжительность: 01:56:34
Перевод: Дубляж
Субтитры:русские (Полные), английские (полные)
Режиссер:Стивен Содерберг / Steven Soderbergh
В ролях:

Джордж Клуни (Danny Ocean), Брэд Питт (Rusty Ryan), Мэтт Дэймон (Linus Caldwell), Джулия Робертс (Tess Ocean), Энди Гарсиа (Terry Benedict), Кейси Аффлек (Virgil Malloy), Скотт Каан (Turk Malloy), Эллиотт Гулд (Reuben Tishkoff), Берни Мак (Frank Catton), Дон Чидл (Basher Tarr, в титрах не указан), Карл Райнер (Saul Bloom), Цинь Шаобо (Yen)
Описание:
После выхода из тюрьмы вора Дэнни Оушена не проходит и 24 часов, а он уже планирует организовать самое сложное ограбление казино в истории. Он хочет украсть 160 млн. американских долларов из трех самых преуспевающих казино Лас-Вегаса.
Все эти казино принадлежат элегантному и в то же время жестокому дельцу Терри Бенедикту, который только и мечтает о том, как встретится с бывшей женой Дэнни Оушена - Тесс. Возможно это только совпадение? А может быть это повод?
Всего за одну ночь Дэнни подбирает команду из одиннадцати «специалистов», способных совершить эту дерзкую кражу. В команде Оушена оказываются первоклассный карточный шулер, молодой искусный вор-карманник и гениальный разрушитель.
Чтобы совершить этот безумный и сложный грабеж Оушену придется рисковать своей жизнью, однако его почти невыполнимый план может все-таки удастся..

Автор рипа:Tiberiumsun69
Качество: BDRip 720p / 60 FPS
Формат: MKV
Видео кодек: AVC
Аудио кодек:AC3
Видео: 1280x536, 7344 kbps, 59,940 fps
Аудио №1: русский/ 5.1/ 48 kHz/ 640 kbps/ AC3/ |Дубляж|
Аудио №2: английский/ 5.1/ 48 kHz/ 640 kbps/ AC3
Навигация по главам: есть


Код:

General
Unique ID                                : 172680213150544271996411294567298368816 (0x81E8FFD427B6988787CC3F86124E0530)
Complete name                            : A:\720p 60fps\Друзья Оушена 720p 60fps\11 Друзей Оушена 720p 60fps.mkv
Format                                   : Matroska
Format version                           : Version 4 / Version 2
File size                                : 7.16 GiB
Duration                                 : 1h 56mn
Overall bit rate                         : 8 799 Kbps
Encoded date                             : UTC 2014-08-17 03:34:31
Writing application                      : mkvmerge v6.9.1 ('Blue Panther') 64bit built on Apr 18 2014 18:23:38
Writing library                          : libebml v1.3.0 + libmatroska v1.4.1

Video
ID                                       : 1
Format                                   : AVC
Format/Info                              : Advanced Video Codec
Format profile                           : High@L4.1
Format settings, CABAC                   : Yes
Format settings, ReFrames                : 9 frames
Codec ID                                 : V_MPEG4/ISO/AVC
Duration                                 : 1h 56mn
Bit rate                                 : 7 344 Kbps
Width                                    : 1 280 pixels
Height                                   : 536 pixels
Display aspect ratio                     : 2.40:1
Frame rate                               : 59.940 fps
Color space                              : YUV
Chroma subsampling                       : 4:2:0
Bit depth                                : 8 bits
Scan type                                : Progressive
Bits/(Pixel*Frame)                       : 0.179
Stream size                              : 5.98 GiB (83%)
Writing library                          : x264 core 130 r2273 b3065e6
Encoding settings                        : cabac=1 / ref=9 / deblock=1:-1:-1 / analyse=0x3:0 / me=umh / subme=9 / psy=1 / psy_rd=1.00:0.10 / mixed_ref=1 / me_range=42 / chroma_me=0 / trellis=2 / 8x8dct=1 / cqm=0 / deadzone=21,11 / fast_pskip=0 / chroma_qp_offset=-3 / threads=12 / lookahead_threads=1 / sliced_threads=0 / nr=0 / decimate=0 / interlaced=0 / bluray_compat=0 / constrained_intra=0 / bframes=6 / b_pyramid=2 / b_adapt=2 / b_bias=0 / direct=1 / weightb=1 / open_gop=0 / weightp=2 / keyint=594 / keyint_min=59 / scenecut=40 / intra_refresh=0 / rc=crf / mbtree=0 / crf=15.0 / qcomp=0.60 / qpmin=0 / qpmax=69 / qpstep=4 / ip_ratio=1.40 / pb_ratio=1.30 / aq=0
Language                                 : English
Default                                  : Yes
Forced                                   : No

Audio #1
ID                                       : 2
Format                                   : AC-3
Format/Info                              : Audio Coding 3
Mode extension                           : CM (complete main)
Codec ID                                 : A_AC3
Duration                                 : 1h 56mn
Bit rate mode                            : Constant
Bit rate                                 : 640 Kbps
Channel(s)                               : 6 channels
Channel positions                        : Front: L C R, Side: L R, LFE
Sampling rate                            : 48.0 KHz
Bit depth                                : 16 bits
Compression mode                         : Lossy
Stream size                              : 534 MiB (7%)
Title                                    : Дубляж
Language                                 : Russian
Default                                  : Yes
Forced                                   : No

Audio #2
ID                                       : 3
Format                                   : AC-3
Format/Info                              : Audio Coding 3
Mode extension                           : CM (complete main)
Codec ID                                 : A_AC3
Duration                                 : 1h 56mn
Bit rate mode                            : Constant
Bit rate                                 : 640 Kbps
Channel(s)                               : 6 channels
Channel positions                        : Front: L C R, Side: L R, LFE
Sampling rate                            : 48.0 KHz
Bit depth                                : 16 bits
Compression mode                         : Lossy
Stream size                              : 534 MiB (7%)
Title                                    : Original
Language                                 : English
Default                                  : No
Forced                                   : No

Text #1
ID                                       : 4
Format                                   : UTF-8
Codec ID                                 : S_TEXT/UTF8
Codec ID/Info                            : UTF-8 Plain Text
Title                                    : Полные
Language                                 : Russian
Default                                  : No
Forced                                   : No

Text #2
ID                                       : 5
Format                                   : UTF-8
Codec ID                                 : S_TEXT/UTF8
Codec ID/Info                            : UTF-8 Plain Text
Title                                    : Full
Language                                 : English
Default                                  : No
Forced                                   : No

Menu
00:00:00.000                             : en:Chapter 1
00:02:06.960                             : en:Chapter 2
00:05:10.310                             : en:Chapter 3
00:11:16.342                             : en:Chapter 4
00:14:27.032                             : en:Chapter 5
00:18:26.939                             : en:Chapter 6
00:20:27.559                             : en:Chapter 7
00:23:10.222                             : en:Chapter 8
00:25:57.222                             : en:Chapter 9
00:28:17.028                             : en:Chapter 10
00:33:35.179                             : en:Chapter 11
00:39:39.543                             : en:Chapter 12
00:42:34.718                             : en:Chapter 13
00:44:30.000                             : en:Chapter 14
00:48:44.755                             : en:Chapter 15
00:54:00.904                             : en:Chapter 16
00:56:36.226                             : en:Chapter 17
00:58:18.495                             : en:Chapter 18
01:01:52.709                             : en:Chapter 19
01:04:02.505                             : en:Chapter 20
01:05:27.256                             : en:Chapter 21
01:08:31.273                             : en:Chapter 22
01:13:20.229                             : en:Chapter 23
01:16:23.579                             : en:Chapter 24
01:19:30.098                             : en:Chapter 25
01:22:34.616                             : en:Chapter 26
01:25:11.606                             : en:Chapter 27
01:29:34.035                             : en:Chapter 28
01:33:22.597                             : en:Chapter 29
01:35:27.888                             : en:Chapter 30
01:39:16.116                             : en:Chapter 31
01:41:32.086                             : en:Chapter 32
01:44:10.244                             : en:Chapter 33
01:49:12.546                             : en:Chapter 34
01:51:33.853                             : en:Chapter 35
01:56:33.945                             : en:Chapter 36

..::Скриншоты::..
Двенадцать друзей Оушена / Ocean's Twelve«Теперь их... целая дюжина»



Год выпуска: 2004
Страна: США
Жанр: триллер, криминал
Продолжительность: 02:05:18
Перевод: Дубляж
Субтитры:русские (Полные), английские (полные)
Режиссер:Стивен Содерберг / Steven Soderbergh
В ролях:

Джордж Клуни (Danny Ocean), Брэд Питт (Rusty Ryan), Мэтт Дэймон (Linus Caldwell), Кэтрин Зета-Джонс (Isabel Lahiri), Джулия Робертс (Tess Ocean), Дон Чидл (Basher Tarr), Венсан Кассель (François Toulour), Карл Райнер (Saul Bloom), Эллиотт Гулд (Reuben Tishkoff), Скотт Каан (Turk Malloy), Кейси Аффлек (Virgil Malloy), Берни Мак (Frank Catton)
Описание:
И снова гангстер Денни Оушен собирает свою банду профессиональных грабителей и мошенников, в которой появились и новые лица. На этот раз они задумали провернуть три ограбления в крупнейших европейских столицах. Возможно, для этого банде придется разделиться на три группы.
Тем временем владелец казино Терри Бенедикт, которого Оушен со своими приятелями обчистил в Лас-Вегасе, жаждет мести и буквально висит у них на хвосте... Он зол и пытается настигнуть банду, за которой также охотятся агенты Европола и таинственный французский конкурент по имени Диннер Джекет...

Автор рипа:Tiberiumsun69
Качество: BDRip 720p / 60 FPS
Формат: MKV
Видео кодек: AVC
Аудио кодек:AC3
Видео: 1280x536, 8376 kbps, 59,940 fps
Аудио №1: русский/ 5.1/ 48 kHz/ 640 kbps/ AC3/ |Дубляж|
Аудио №2: английский/ 5.1/ 48 kHz/ 640 kbps/ AC3
Навигация по главам: есть


Код:

General
Unique ID                                : 218191195770306787175875268904682737847 (0xA42618834E4FF30683CFF54A47CB50B7)
Complete name                            : A:\720p 60fps\Друзья Оушена 720p 60fps\12 Друзей Оушена 720p 60fps.mkv
Format                                   : Matroska
Format version                           : Version 4 / Version 2
File size                                : 8.62 GiB
Duration                                 : 2h 5mn
Overall bit rate                         : 9 852 Kbps
Encoded date                             : UTC 2014-08-17 03:44:31
Writing application                      : mkvmerge v6.9.1 ('Blue Panther') 64bit built on Apr 18 2014 18:23:38
Writing library                          : libebml v1.3.0 + libmatroska v1.4.1

Video
ID                                       : 1
Format                                   : AVC
Format/Info                              : Advanced Video Codec
Format profile                           : High@L4.1
Format settings, CABAC                   : Yes
Format settings, ReFrames                : 9 frames
Codec ID                                 : V_MPEG4/ISO/AVC
Duration                                 : 2h 5mn
Bit rate                                 : 8 376 Kbps
Width                                    : 1 280 pixels
Height                                   : 536 pixels
Display aspect ratio                     : 2.40:1
Frame rate                               : 59.940 fps
Color space                              : YUV
Chroma subsampling                       : 4:2:0
Bit depth                                : 8 bits
Scan type                                : Progressive
Bits/(Pixel*Frame)                       : 0.204
Stream size                              : 7.33 GiB (85%)
Writing library                          : x264 core 130 r2273 b3065e6
Encoding settings                        : cabac=1 / ref=9 / deblock=1:-1:-1 / analyse=0x3:0 / me=umh / subme=9 / psy=1 / psy_rd=1.00:0.10 / mixed_ref=1 / me_range=42 / chroma_me=0 / trellis=2 / 8x8dct=1 / cqm=0 / deadzone=21,11 / fast_pskip=0 / chroma_qp_offset=-3 / threads=12 / lookahead_threads=1 / sliced_threads=0 / nr=0 / decimate=0 / interlaced=0 / bluray_compat=0 / constrained_intra=0 / bframes=6 / b_pyramid=2 / b_adapt=2 / b_bias=0 / direct=1 / weightb=1 / open_gop=0 / weightp=2 / keyint=594 / keyint_min=59 / scenecut=40 / intra_refresh=0 / rc=crf / mbtree=0 / crf=15.0 / qcomp=0.60 / qpmin=0 / qpmax=69 / qpstep=4 / ip_ratio=1.40 / pb_ratio=1.30 / aq=0
Language                                 : English
Default                                  : Yes
Forced                                   : No

Audio #1
ID                                       : 2
Format                                   : AC-3
Format/Info                              : Audio Coding 3
Mode extension                           : CM (complete main)
Codec ID                                 : A_AC3
Duration                                 : 2h 5mn
Bit rate mode                            : Constant
Bit rate                                 : 640 Kbps
Channel(s)                               : 6 channels
Channel positions                        : Front: L C R, Side: L R, LFE
Sampling rate                            : 48.0 KHz
Bit depth                                : 16 bits
Compression mode                         : Lossy
Stream size                              : 574 MiB (6%)
Title                                    : Дубляж
Language                                 : Russian
Default                                  : Yes
Forced                                   : No

Audio #2
ID                                       : 3
Format                                   : AC-3
Format/Info                              : Audio Coding 3
Mode extension                           : CM (complete main)
Codec ID                                 : A_AC3
Duration                                 : 2h 5mn
Bit rate mode                            : Constant
Bit rate                                 : 640 Kbps
Channel(s)                               : 6 channels
Channel positions                        : Front: L C R, Side: L R, LFE
Sampling rate                            : 48.0 KHz
Bit depth                                : 16 bits
Compression mode                         : Lossy
Stream size                              : 574 MiB (6%)
Title                                    : Original
Language                                 : English
Default                                  : No
Forced                                   : No

Text #1
ID                                       : 4
Format                                   : UTF-8
Codec ID                                 : S_TEXT/UTF8
Codec ID/Info                            : UTF-8 Plain Text
Title                                    : Полные
Language                                 : Russian
Default                                  : No
Forced                                   : No

Text #2
ID                                       : 5
Format                                   : UTF-8
Codec ID                                 : S_TEXT/UTF8
Codec ID/Info                            : UTF-8 Plain Text
Title                                    : Full
Language                                 : English
Default                                  : No
Forced                                   : No

Menu
00:00:00.000                             : en:Chapter 1
00:03:07.228                             : en:Chapter 2
00:08:09.822                             : en:Chapter 3
00:14:52.057                             : en:Chapter 4
00:16:39.999                             : en:Chapter 5
00:22:04.489                             : en:Chapter 6
00:24:09.614                             : en:Chapter 7
00:27:16.134                             : en:Chapter 8
00:30:58.523                             : en:Chapter 9
00:36:16.007                             : en:Chapter 10
00:39:37.708                             : en:Chapter 11
00:41:31.989                             : en:Chapter 12
00:45:17.548                             : en:Chapter 13
00:51:16.406                             : en:Chapter 14
00:56:44.234                             : en:Chapter 15
00:58:47.690                             : en:Chapter 16
01:02:00.216                             : en:Chapter 17
01:03:33.309                             : en:Chapter 18
01:05:53.449                             : en:Chapter 19
01:09:49.018                             : en:Chapter 20
01:13:10.552                             : en:Chapter 21
01:15:32.027                             : en:Chapter 22
01:17:25.140                             : en:Chapter 23
01:20:23.819                             : en:Chapter 24
01:22:50.966                             : en:Chapter 25
01:26:02.323                             : en:Chapter 26
01:30:49.444                             : en:Chapter 27
01:35:19.547                             : en:Chapter 28
01:38:13.721                             : en:Chapter 29
01:41:21.408                             : en:Chapter 30
01:44:19.753                             : en:Chapter 31
01:46:35.389                             : en:Chapter 32
01:48:38.512                             : en:Chapter 33
01:53:47.320                             : en:Chapter 34
01:57:24.537                             : en:Chapter 35
01:58:47.620                             : en:Chapter 36
02:05:17.801                             : en:Chapter 37

..::Скриншоты::..
Тринадцать друзей Оушена / Ocean's Thirteen«Месть - забавная штука»



Год выпуска: 2007
Страна: США
Жанр: триллер, криминал
Продолжительность: 02:02:09
Перевод: Дубляж
Субтитры:русские (Полные), английские (полные)
Режиссер:Стивен Содерберг / Steven Soderbergh
В ролях:

Джордж Клуни (Danny Ocean), Брэд Питт (Rusty Ryan), Мэтт Дэймон (Linus Caldwell / Lenny Pepperidge), Аль Пачино (Willy Bank), Дон Чидл (Basher Tarr), Эллиотт Гулд (Reuben Tishkoff), Кейси Аффлек (Virgil Malloy), Скотт Каан (Turk Malloy), Дэвид Пэймер (The V.U.P.), Эллен Баркин (Abigail Sponder), Эдди Джемисон (Livingston Dell), Энди Гарсиа (Terry Benedict)
Описание:
Новая глава о криминальных похождениях Дэнни Оушена и его команды талантливейших мошенников в Лас-Вегасе.
У Дэнни Оушена и его команды могла быть только одна причина, по которой они готовы провернуть самое амбициозное и рискованное ограбление казино в их жизни, - ради защиты одного из «своих».
Когда безжалостный владелец казино Уилли Бэнк подставляет одного из некогда одиннадцати друзей Оушена, - а именно Рубена Тишкоффа, - Дэнни и его верным соратникам ничего не остается, как вновь объединиться, чтобы проверить, по силам ли им все еще сорвать «банк».

Автор рипа:Tiberiumsun69
Качество: BDRip 720p / 60 FPS
Формат: MKV
Видео кодек: AVC
Аудио кодек:AC3
Видео: 1280x536, 9092 kbps, 59,940 fps
Аудио №1: русский/ 5.1/ 48 kHz/ 640 kbps/ AC3/ |Дубляж|
Аудио №2: английский/ 5.1/ 48 kHz/ 640 kbps/ AC3
Навигация по главам: есть


Код:

General
Unique ID                                : 194712328643994094820661356430988926068 (0x927C3AFD4F0578CB9D92FFFF4813DC74)
Complete name                            : A:\720p 60fps\Друзья Оушена 720p 60fps\13 Друзей Оушена 720p 60fps.mkv
Format                                   : Matroska
Format version                           : Version 4 / Version 2
File size                                : 9.03 GiB
Duration                                 : 2h 2mn
Overall bit rate                         : 10.6 Mbps
Encoded date                             : UTC 2014-08-17 03:55:40
Writing application                      : mkvmerge v6.9.1 ('Blue Panther') 64bit built on Apr 18 2014 18:23:38
Writing library                          : libebml v1.3.0 + libmatroska v1.4.1

Video
ID                                       : 1
Format                                   : AVC
Format/Info                              : Advanced Video Codec
Format profile                           : High@L4.1
Format settings, CABAC                   : Yes
Format settings, ReFrames                : 9 frames
Codec ID                                 : V_MPEG4/ISO/AVC
Duration                                 : 2h 2mn
Bit rate                                 : 9 093 Kbps
Width                                    : 1 280 pixels
Height                                   : 536 pixels
Display aspect ratio                     : 2.40:1
Frame rate                               : 59.940 fps
Color space                              : YUV
Chroma subsampling                       : 4:2:0
Bit depth                                : 8 bits
Scan type                                : Progressive
Bits/(Pixel*Frame)                       : 0.221
Stream size                              : 7.76 GiB (86%)
Writing library                          : x264 core 130 r2273 b3065e6
Encoding settings                        : cabac=1 / ref=9 / deblock=1:-1:-1 / analyse=0x3:0 / me=umh / subme=9 / psy=1 / psy_rd=1.00:0.10 / mixed_ref=1 / me_range=42 / chroma_me=0 / trellis=2 / 8x8dct=1 / cqm=0 / deadzone=21,11 / fast_pskip=0 / chroma_qp_offset=-3 / threads=12 / lookahead_threads=1 / sliced_threads=0 / nr=0 / decimate=0 / interlaced=0 / bluray_compat=0 / constrained_intra=0 / bframes=6 / b_pyramid=2 / b_adapt=2 / b_bias=0 / direct=1 / weightb=1 / open_gop=0 / weightp=2 / keyint=594 / keyint_min=59 / scenecut=40 / intra_refresh=0 / rc=crf / mbtree=0 / crf=15.0 / qcomp=0.60 / qpmin=0 / qpmax=69 / qpstep=4 / ip_ratio=1.40 / pb_ratio=1.30 / aq=0
Language                                 : English
Default                                  : Yes
Forced                                   : No

Audio #1
ID                                       : 2
Format                                   : AC-3
Format/Info                              : Audio Coding 3
Mode extension                           : CM (complete main)
Codec ID                                 : A_AC3
Duration                                 : 2h 2mn
Bit rate mode                            : Constant
Bit rate                                 : 640 Kbps
Channel(s)                               : 6 channels
Channel positions                        : Front: L C R, Side: L R, LFE
Sampling rate                            : 48.0 KHz
Bit depth                                : 16 bits
Compression mode                         : Lossy
Stream size                              : 559 MiB (6%)
Title                                    : Дубляж
Language                                 : Russian
Default                                  : Yes
Forced                                   : No

Audio #2
ID                                       : 3
Format                                   : AC-3
Format/Info                              : Audio Coding 3
Mode extension                           : CM (complete main)
Codec ID                                 : A_AC3
Duration                                 : 2h 2mn
Bit rate mode                            : Constant
Bit rate                                 : 640 Kbps
Channel(s)                               : 6 channels
Channel positions                        : Front: L C R, Side: L R, LFE
Sampling rate                            : 48.0 KHz
Bit depth                                : 16 bits
Compression mode                         : Lossy
Stream size                              : 559 MiB (6%)
Title                                    : Original
Language                                 : English
Default                                  : No
Forced                                   : No

Text #1
ID                                       : 4
Format                                   : UTF-8
Codec ID                                 : S_TEXT/UTF8
Codec ID/Info                            : UTF-8 Plain Text
Title                                    : Полные
Language                                 : Russian
Default                                  : No
Forced                                   : No

Text #2
ID                                       : 5
Format                                   : UTF-8
Codec ID                                 : S_TEXT/UTF8
Codec ID/Info                            : UTF-8 Plain Text
Title                                    : Full
Language                                 : English
Default                                  : No
Forced                                   : No

Menu
00:00:00.000                             : en:Chapter 1
00:04:42.282                             : en:Chapter 2
00:07:38.458                             : en:Chapter 3
00:10:06.105                             : en:Chapter 4
00:13:11.957                             : en:Chapter 5
00:17:26.879                             : en:Chapter 6
00:21:30.122                             : en:Chapter 7
00:24:26.465                             : en:Chapter 8
00:27:42.827                             : en:Chapter 9
00:30:36.501                             : en:Chapter 10
00:32:38.289                             : en:Chapter 11
00:39:01.839                             : en:Chapter 12
00:42:08.859                             : en:Chapter 13
00:46:22.613                             : en:Chapter 14
00:49:41.645                             : en:Chapter 15
00:51:43.266                             : en:Chapter 16
00:53:30.040                             : en:Chapter 17
00:58:10.820                             : en:Chapter 18
01:00:49.646                             : en:Chapter 19
01:07:24.206                             : en:Chapter 20
01:10:53.749                             : en:Chapter 21
01:13:31.240                             : en:Chapter 22
01:18:04.513                             : en:Chapter 23
01:21:22.377                             : en:Chapter 24
01:26:11.166                             : en:Chapter 25
01:28:35.476                             : en:Chapter 26
01:32:34.715                             : en:Chapter 27
01:34:43.344                             : en:Chapter 28
01:37:17.164                             : en:Chapter 29
01:40:58.886                             : en:Chapter 30
01:43:09.683                             : en:Chapter 31
01:50:20.113                             : en:Chapter 32
01:52:35.415                             : en:Chapter 33
01:56:37.490                             : en:Chapter 34
02:02:08.988                             : en:Chapter 35

..::Скриншоты::..
Просьба к заливающим на другик сайты "Подписывайте пожалуйста автора рипа Tiberiumsun69"

© Оформление by Tiberiumsun69
Авторская группа в ВК
pb.wtf



Скачать Трилогия Оушена через торрент https://pic.kartinco.top/new/img/2014-08/17/wcy947lmcq5bm2f9f96blw0g9.png Скачать, смотреть онлайн Трилогия Оушена бесплантно в хорошем качестве Описание: После выхода из тюрьмы вора Дэнни Оушена не проходит и 24 часов, а он уже планирует организовать самое сложное ограбление казино ... 10 10 11
Info! Золотая раздача, скачанное не засчитывается.
Торрент: Зарегистрирован [2014-08-17 07:36] · скачан: 47 раз
Статус: √ проверено
Размер: 24.82 GB
Как cкачать? Как скачать Трилогия Оушена через торрент | UTorrent



Последний раз редактировалось: Tiberiumsun69 (2018-02-07 08:08), всего редактировалось 1 раз

28-11-2019 20:33  

Отключить всю рекламу на сайте

15-07-2015 14:10 Трилогия Оушена Скачать торрент  

Господа,будьте любезны,поддержите столь хорошую раздачу.pb.wtf



    Дорогой пользователь! Огромная просьба, поблагодарите релизера, оцените раздачу и оставьте свои комментарий, если Вы скачали Трилогия Оушена через торрент бесплатно!
    Комментировать посты могут только пользователи прошедшие не сложную регистрацию
    Показать сообщения:    

    Трилогия Оушена через торрент
    Скачать бесплатно Трилогия Оушена
    Трилогия Оушена скачать торрент
    Трилогия Оушена смотреть онлайн
    Cкачать фильм Трилогия Оушена бесплатно
    Трилогия Оушена скачать торрент в хорошем качестве
    Трилогия Оушена смотреть онлайн бесплатно в хорошем качестве


    Вы не можете начинать темы
    Вы не можете отвечать на сообщения
    Вы не можете редактировать свои сообщения
    Вы не можете удалять свои сообщения
    Вы не можете голосовать в опросах
    Вы не можете прикреплять файлы к сообщениям
    Вы можете скачивать файлы