новый адрес пиратбит piratbit
Мега распродажа FORZA HORIZON 4 ULTIMATE+ВСЕ DLC+ОНЛАЙН всего за 499р. 349 руб. (супер цена). Внимание количество ограничено!!!

iTunes

1+1

iTunes

мы

iTunes

1

iTunes

Чернобыль

iTunes

Ральф против интернета

Лицензия

ПШазам

Лицензия

Игра престолов

Лицензия

30
pack

ВАЖНО

!!Акция!!

Alien_RageХит недели

RePack

Resident Evil 21

ИГРА 18+

pack

RePack

Metro:Exodus

!!Акция!!

Alien_Rage

RePack

fifa19

RePack

Assassins Creed: Odyssey

RePack

NEED FOR SPEED™ PAYBACK

3 сезон

9 сезон

Бесстыжие 9 сезон

Все сериалы

все сериалы на PB.wtf

RePack

FAR CRY 5
Ребята, катастрофически не хватает 1900р. для оплаты серверов за Октябрь (всвязи с блокировками трафик упал в 3 раза), 1-2р., выручайте.
  

Вертикаль (Борис Дуров, Станислав Говорухин) [1966 г., приключения, DVDRip-AVC] pb.wtf

Вертикаль через торрент pb.wtf

Размер: 1.46 GB | Добавлен: 5 лет 2 мес. назад | Торрент скачан:35 раз
Скачать  

17-08-2014 08:05 Вертикаль Скачать торрент  

Вертикаль
Год выпуска: 1966
Страна: СССР
Жанр: приключения
Продолжительность: 01:12:47

Режиссер: Борис Дуров, Станислав Говорухин
Сценарий: Сергей Тарасов, Николай Рашеев

Премьера в мире: 19 июня 1967



В ролях: Владимир Высоцкий, Лариса Лужина, Бухути Закариадзе, Геннадий Воропаев, Маргарита Кошелева, Георгий Кульбуш, Александр Фадеев

Описание: Группе альпинистов, идущих на штурм непокоренной кавказской вершины, пика Ор-Тау, послан сигнал о немедленном возвращении: надвигается грозовой циклон. Связист скрывает от товарищей это предупреждение, и они оказываются в критической ситуации. Трагедии удается избежать только благодаря мужеству спасателей и опыту самих спортсменов…

Качество: DVDRip-AVC
Формат: MKV
Видео кодек: AVC
Аудио кодек: AC3
Видео: 670x362, (2.2:1), 25,000 кадров/сек, 2419 Кбит/сек, 0.399 бит/пикс
Аудио: 48,0 КГц, АС3, 6 каналов, 448 Кбит/сек


скриншот   скриншот   скриншот   скриншот  
Полное имя : D:\загрузки\Вертикаль (1967).mkv
Формат : Matroska
Версия формата : Version 4 / Version 2
Размер файла : 1,46 Гбайт
Продолжительность : 1 ч. 12 м.
Общий поток : 2869 Кбит/сек
Дата кодирования : UTC 2013-03-29 16:42:59
Программа кодирования : mkvmerge v6.1.0 ('Old Devil') built on Mar 2 2013 14:32:37
Библиотека кодирования : libebml v1.3.0 + libmatroska v1.4.0

Видео
Идентификатор : 1
Формат : AVC
Формат/Информация : Advanced Video Codec
Профиль формата : High@L4.1
Параметр CABAC формата : Да
Параметр ReFrames формата : 6 кадров
Идентификатор кодека : V_MPEG4/ISO/AVC
Продолжительность : 1 ч. 12 м.
Битрейт : 2419 Кбит/сек
Ширина : 670 пикселей
Высота : 362 пикселя
Соотношение сторон : 2,2:1
Соотношение сторон в оригинале : 2,2:1
Режим частоты кадров : Постоянный
Частота кадров : 25,000 кадров/сек
Цветовое пространство : YUV
Субдискретизация насыщенности : 4:2:0
Битовая глубина : 8 бит
Тип развёртки : Прогрессивная
Бит/(Пиксели*Кадры) : 0.399
Размер потока : 1,20 Гбайт (82%)
Библиотека кодирования : x264 core 130 r2273 b3065e6
Настройки программы : cabac=1 / ref=6 / deblock=1:-1:-1 / analyse=0x3:0x133 / me=umh / subme=9 / psy=1 / psy_rd=1.00:0.00 / mixed_ref=1 / me_range=36 / chroma_me=1 / trellis=2 / 8x8dct=1 / cqm=0 / deadzone=21,11 / fast_pskip=1 / chroma_qp_offset=-2 / threads=3 / lookahead_threads=1 / sliced_threads=0 / nr=0 / decimate=1 / interlaced=0 / bluray_compat=0 / constrained_intra=0 / bframes=9 / b_pyramid=2 / b_adapt=2 / b_bias=0 / direct=3 / weightb=1 / open_gop=0 / weightp=2 / keyint=250 / keyint_min=25 / scenecut=40 / intra_refresh=0 / rc_lookahead=60 / rc=2pass / mbtree=1 / bitrate=2419 / ratetol=1.0 / qcomp=0.60 / qpmin=0 / qpmax=69 / qpstep=4 / cplxblur=20.0 / qblur=0.5 / ip_ratio=1.40 / aq=1:1.00
Язык : English
Default : Да
Forced : Нет

Аудио
Идентификатор : 2
Формат : AC-3
Формат/Информация : Audio Coding 3
Расширение режима : CM (complete main)
Параметр Endianness формата : Big
Идентификатор кодека : A_AC3
Продолжительность : 1 ч. 12 м.
Вид битрейта : Постоянный
Битрейт : 448 Кбит/сек
Каналы : 6 каналов
Расположение каналов : Front: L C R, Side: L R, LFE
Частота : 48,0 КГц
Битовая глубина : 16 бит
Метод сжатия : С потерями
Размер потока : 233 Мбайт (16%)
Default : Да
Forced : Нет

pb.wtf



Скачать Вертикаль через торрент http://pic.kartinco.top/images/6/qfsg9.jpg Скачать фильм Вертикаль через торрент бесплантно в хорошем качестве Описание: Группе альпинистов, идущих на штурм непокоренной кавказской вершины, пика Ор-Тау, послан сигнал о немедленном возвращении: ... 9.1 10 8
Info! Золотая раздача, скачанное не засчитывается.
Торрент: Зарегистрирован [2014-08-17 08:05] · скачан: 35 раз
Статус: √ проверено
Размер: 1.46 GB
Как cкачать? Как скачать Вертикаль через торрент | qTorrent

% Раздел Тема Автор DL S | L
3D Фильмы [ 21.02 GB ] Судья Дредд 3Д/ Dredd 3D [2012 BDRip 1080p OverUnder / Вертикальная стереопара DUB лицензия] serega768 Скачать
1 | 0
3D Фильмы [ 24.73 GB ] Люди в черном 3 / Men in Black 3 [2012 BDRip 1080p DUB лицензия] OverUnder / Вертикальная стереопара serega768 Скачать
1 | 0
3D Фильмы [ 8.84 GB ] Геймер 3D / Gamer [2009 BDRip 3D 1080p лицензия]Вертикальная анаморфная стереопара Userman4ik Скачать
1 | 0
3D Фильмы [ 11.2 GB ] Прометей / Prometheus [2012 BDRip 1080p DUB лицензия]OverUnder / Вертикальная стереопара serega768 Скачать
2 | 0
3D Фильмы [ 16.03 GB ] Дракула в 3Д / Dracula 3D [2012 Мело BDrip 1080p]Full OverUnder / Вертикальная стереопара serega768 Скачать
1 | 0
Документальные фильмы 3D [ 13.24 GB ] Цирк дю Солей: Сказочный мир в 3Д / Cirque du Soleil: Worlds Away 3D [2012 Мюзикл Цирк BDrip 1080p] OverUnder / Вертикальная стереопара serega768 Скачать
1 | 0
3D Мультфильмы [ 7.59 GB ] Как приручить дракона 3D / How to Train Your Dragon 3D [2010 мультфильм BDRip DUB лицензия] / Вертикальная анаморфная стереопара Андрей фил Скачать
1 | 0


>> Регистрируемся здесь <<






Отзывы и комментарии о схеме читаем и пишем здесь: ---> Отзывы и комментарии о схеме

Новые благодарочки в телеграм довольных пользователей:
скриншот   скриншот   скриншот   скриншот   скриншот
    Дорогой пользователь! Огромная просьба, поблагодарите релизера, оцените раздачу и оставьте свои комментарий, если Вы скачали Вертикаль через торрент бесплатно! Внесите свою лепту в развитие PiratBit!
    Комментировать посты могут только пользователи прошедшие не сложную регистрацию
    Показать сообщения:    

    Вертикаль через торрент
    Скачать бесплатно Вертикаль
    Вертикаль скачать торрент
    Вертикаль смотреть онлайн
    Cкачать фильм Вертикаль бесплатно
    Вертикаль скачать торрент в хорошем качестве
    Вертикаль смотреть онлайн бесплатно в хорошем качестве


    Вы не можете начинать темы
    Вы не можете отвечать на сообщения
    Вы не можете редактировать свои сообщения
    Вы не можете удалять свои сообщения
    Вы не можете голосовать в опросах
    Вы не можете прикреплять файлы к сообщениям
    Вы можете скачивать файлы