Ссылка на приватное зеркало всего за 1$. Внимание количество ограничено!!!

iTunes

iTunes

iTunes

1

iTunes

iTunes

iTunes

WEBRip

iTunes

30
pack

$ от Little Big

ВАЖНО

!!Акция!!

Alien_RageХит недели

RePack

Resident Evil 21

ИГРА 18+

pack

RePack

jed

!!Акция!!

Alien_Rage

RePack

fifa19

RePack

Assassins Creed: Odyssey

RePack

NEED FOR SPEED™ PAYBACK

4 сезон

9 сезон

Бесстыжие 9 сезон

Все сериалы

все сериалы на PB.wtf

RePack

FAR CRY 5
  

12 (Никита Михалков) [2007, Россия, триллер, драма, криминал, BDRip, Оригинальный] pb.wtf

12 через торрент pb.wtf

Размер: 2.17 GB | Добавлен: 5 лет 11 мес. назад | Торрент скачан:103 раза
Скачать  

17-08-2014 08:10 12 Скачать торрент  

12

Год выпуска: 2007
Страна: Россия
Жанр: триллер, драма, криминал, детектив, военный

Продолжительность: 02:35:04
Перевод: Оригинальный
Субтитры: Нет
Режиссер: Никита Михалков
В ролях: Сергей Маковецкий (присяжный №1), Никита Михалков (присяжный №2), Сергей Гармаш (присяжный №3), Валентин Гафт (присяжный №4), Алексей Петренко (присяжный №5), Юрий Стоянов (присяжный №6), Сергей Газаров (присяжный №7), Михаил Ефремов (присяжный №8), Алексей Горбунов (присяжный №9), Сергей Арцибашев (присяжный №10), Виктор Вержбицкий (присяжный №11), Роман Мадянов (присяжный №12)
Описание:
История о 12-ти присяжных, обсуждающих, виновен ли 18-летний юноша, обвиняемый в убийстве своего отчима - офицера Российской армии, воевавшего в Чечне.
Все улики свидетельствуют против обвиняемого, и одиннадцать из двенадцати человек, собравшихся в школьном спортзале, готовы осудить юношу. Но один из присяжных уверен, что все не так однозначно, как кажется на первый взгляд, и предлагает коллегам более вдумчиво рассмотреть дело.
Рейтинг


MPAA: PG-13 - Детям до 13 лет просмотр не желателен
Качество: BDRip
Формат: AVI
Видео кодек: XviD
Аудио кодек:AC3
Видео: XviD, 720x304 (2.35:1), 1545 kbps, 23,976 fps, 0,295 bpp
Аудио: AC3 / 5.1 / 48 kHz / 448 kbps / 16 bit

Общее
Полное имя : E:\ФИЛЬМЫ\12_2007..avi
Формат : AVI
Формат/Информация : Audio Video Interleave
Профиль формата : OpenDML
Размер файла : 2,17 Гбайт
Продолжительность : 2 ч. 35 м.
Общий поток : 2006 Кбит/сек
Программа кодирования : VirtualDubMod 1.5.10.2 (build 2540/release)
Библиотека кодирования : VirtualDubMod build 2540/release

Видео
Идентификатор : 0
Формат : MPEG-4 Visual
Профиль формата : Advanced Simple@L5
Параметр BVOP формата : 1
Параметр QPel формата : Нет
Параметр GMC формата : Без точки перехода
Параметр матрицы формата : Выборочная
Идентификатор кодека : XVID
Идентификатор кодека/Подсказка : XviD
Продолжительность : 2 ч. 35 м.
Битрейт : 1546 Кбит/сек
Ширина : 720 пикселей
Высота : 304 пикселя
Соотношение сторон : 2,35:1
Частота кадров : 23,976 кадра/сек
Цветовое пространство : YUV
Субдискретизация насыщенности : 4:2:0
Битовая глубина : 8 бит
Тип развёртки : Прогрессивная
Метод сжатия : С потерями
Бит/(Пиксели*Кадры) : 0.295
Размер потока : 1,67 Гбайт (77%)
Библиотека кодирования : XviD 1.2.1 (UTC 2008-12-04)

Аудио
Идентификатор : 1
Формат : AC-3
Формат/Информация : Audio Coding 3
Расширение режима : CM (complete main)
Параметр Endianness формата : Big
Идентификатор кодека : 2000
Продолжительность : 2 ч. 35 м.
Вид битрейта : Постоянный
Битрейт : 448 Кбит/сек
Каналы : 6 каналов
Расположение каналов : Front: L C R, Side: L R, LFE
Частота : 48,0 КГц
Битовая глубина : 16 бит
Метод сжатия : С потерями
Размер потока : 497 Мбайт (22%)
Выравнивание : Разделение по промежуткам
Продолжительность промежутка : 42 мс. (1,00 видеокадр)
Время предзагрузки промежутка : 500 мс.
pb.wtf



Скачать 12 через торрент http://pic.kartinco.top/new/img/2014-08/17/wm8qrsops1gyj4t9r8rqcfope.jpg Скачать фильм 12 через торрент бесплантно в хорошем качестве Описание: История о 12-ти присяжных, обсуждающих, виновен ли 18-летний юноша, обвиняемый в убийстве своего отчима - офицера Российской ... 9 10 11
Торрент: Зарегистрирован [2014-08-17 08:10] · скачан: 103 раз
Статус: √ проверено
Размер: 2.17 GB
Как cкачать? Как скачать 12 через торрент | qTorrent

% Раздел Тема Автор DL S | L
Редакторы видео [ 1.87 GB ] Pinnacle Studio 12 Ultimate Shmel Скачать
2 | 0
Фильмы 2009 [ 1.37 GB ] Луна 2112 / Moon [2009 DVDRip] SD Скачать
1 | 0
RTS (стратегии в реальном времени) [ 3.61 GB ] Red Alert 3 v 1.12 [RePack RU Electronic Arts] Shmel Скачать
3 | 0
Наши сериалы [ 5.27 GB ] Тайная стража [2005 . DVDRip] Инсайдер Скачать
1 | 0
Отечественный Рэп, Хип-Хоп [ 1.8 GB ] Баста a.k.a. Ноггано - Дискография MP3 rza_86 Скачать
1 | 2
Сборники на DVD и Сиквелы [DVDrip, WEB-DLRip, HDrip, BDRip] [ 26.39 GB ] Семнадцать мгновений весны 1-12 Серия [1973 военная SATRip] paul08 Скачать
1 | 0
Графические редакторы [ 21 MB ] FaceFilter Studio 2 v 2.0.1120.1 Anonymous Скачать
1 | 0

28-11-2019 20:33  

Отключить всю рекламу на сайте

    Дорогой пользователь! Огромная просьба, поблагодарите релизера, оцените раздачу и оставьте свои комментарий, если Вы скачали 12 через торрент бесплатно! Внесите свою лепту в развитие PiratBit!
    Комментировать посты могут только пользователи прошедшие не сложную регистрацию
    Показать сообщения:    

    12 через торрент
    Скачать бесплатно 12
    12 скачать торрент
    12 смотреть онлайн
    Cкачать фильм 12 бесплатно
    12 скачать торрент в хорошем качестве
    12 смотреть онлайн бесплатно в хорошем качестве


    Вы не можете начинать темы
    Вы не можете отвечать на сообщения
    Вы не можете редактировать свои сообщения
    Вы не можете удалять свои сообщения
    Вы не можете голосовать в опросах
    Вы не можете прикреплять файлы к сообщениям
    Вы можете скачивать файлы