Всегда рабочее зеркало без VPN и Proxy просто перед .vidak.icu напиши любое слово или цифру, Пример http://ue8.vidak.icu

>

7.4

iTunes

7.4

2 сезон

6.6

iTunes

1

7.4

2 сезон

7.2

iTunes

6.0

MVO

13

6.1

iTunes

8.3

Пиратка

30

ULTIMATE

pack

9.9

Лицензия

ВАЖНО

ИГРА 18+

pack

7.3

RePack

MK11

7.7

RePack

jed

7.8

RePack

fifa19

8.5

RePack

RDR2

RePack

NEED FOR SPEED™ PAYBACK

1 сезон

9 сезон

Бесстыжие 9 сезон

Все сериалы

все сериалы на PB.wtf

RePack

FAR CRY 5

Anonymous, добрый день, мы катастрофически не успеваем собрать деньги на оплату серверов, помогите нам пожалуйста 5,10,15р., для нас важна любая помощь . В качестве благодарности мы отключим Вам всю рекламу на сайте (укажите свой ник в строку Ваше имя)!

×
  
Magnet ссылка

Дом Хемингуэй / Dom Hemingway (Ричард Шепард / Richard Shepard) [2013, Великобритания, драма, комедия, криминал, BDRip-AVC] [AVO] (Д.Есарев) + [Sub Rus, Eng] pb.wtf

Дом Хемингуэй через торрент pb.wtf

Размер: 1.45 GB | Добавлен: 7 лет 5 мес. назад | Торрент скачан:273 раза
Смотреть онлайн Дом Хемингуэй | Скачать    Ребята, помогите собрать деньги на оплату серверов!!!

12-08-2014 14:54 Дом Хемингуэй Скачать торрент  

Дом Хемингуэй / Dom Hemingway
Год выпуска: 2013
Страна: Великобритания
Жанр: драма, комедия, криминал
Продолжительность: 01:33:47
Перевод: Одноголосый (закадровый) Дмитрий Есарев
Cубтитры: русские, английские
Оригинальная аудиодорожка: английский

Режиссер: Ричард Шепард / Richard Shepard


В ролях: Джуд Лоу, Ричард Э. Грант, Демиан Бишир, Эмилия Кларк, Лука Франзони, Ричард Грэхэм, Джордж Суини, Марк Уингетт, Дэвид Бокэм, Ник Раггетт


Описание: Главный герой, виртуозный взломщик сейфов, отличающийся весёлым нравом и цинизмом, но при этом представляющий реальную угрозу. Проведя 12 лет в тюрьме и выйдя на свободу, он намерен востребовать должок, который причитается ему за то, что он держал язык за зубами.






Качество: BDRip-AVC, исходник [BDRemux 1080р]
Формат: MKV
Видео кодек: AVC
Аудио кодек: AC3
Видео: 1072x456 (2.35:1), 23.976 fps, ~1567 Kbps, 0.134 bit/pixel
Аудио: 48 kHz, AC3 Dolby Digital, 3/2 (L,C,R) + L R, LFE ch, ~448.00 kbps avg - Есарев
Аудио: 48 kHz, AC3, 2/0 (L,R) ch, 192 kbps - Eng
Общее
Уникальный идентификатор : 200640220107507934811765662239592269024 (0x96F1E69A8626B6B6A0FCBFAF695FC4E0)
Полное имя : B:\Dom Hemingway.2013.BDRp-AVC.AVO.Esarev.mkv
Формат : Matroska
Версия формата : Version 2
Размер файла : 1,45 Гбайт
Продолжительность : 1 ч. 33 м.
Общий поток : 2209 Кбит/сек
Дата кодирования : UTC 2014-08-11 05:59:44
Программа кодирования : mkvmerge v2.9.7 ('Tenderness') built on Jul 1 2009 18:43:35
Библиотека кодирования : libebml v0.7.7 + libmatroska v0.8.1

Видео
Идентификатор : 1
Формат : AVC
Формат/Информация : Advanced Video Codec
Профиль формата : High@L4.1
Параметр CABAC формата : Да
Параметр ReFrames формата : 7 кадров
Идентификатор кодека : V_MPEG4/ISO/AVC
Продолжительность : 1 ч. 33 м.
Битрейт : 1567 Кбит/сек
Ширина : 1072 пикселя
Высота : 456 пикселей
Соотношение сторон : 2,35:1
Режим частоты кадров : Постоянный
Частота кадров : 24,000 кадра/сек
Цветовое пространство : YUV
Субдискретизация насыщенности : 4:2:0
Битовая глубина : 8 бит
Тип развёртки : Прогрессивная
Бит/(Пиксели*Кадры) : 0.134
Размер потока : 1023 Мбайт (69%)
Библиотека кодирования : x264 core 130 r2273 b3065e6
Настройки программы : cabac=1 / ref=7 / deblock=1:0:0 / analyse=0x3:0x133 / me=umh / subme=10 / psy=0 / mixed_ref=1 / me_range=24 / chroma_me=1 / trellis=2 / 8x8dct=1 / cqm=0 / deadzone=21,11 / fast_pskip=1 / chroma_qp_offset=0 / threads=3 / lookahead_threads=1 / sliced_threads=0 / nr=0 / decimate=1 / interlaced=0 / bluray_compat=0 / constrained_intra=0 / bframes=6 / b_pyramid=2 / b_adapt=2 / b_bias=0 / direct=3 / weightb=1 / open_gop=0 / weightp=2 / keyint=250 / keyint_min=23 / scenecut=40 / intra_refresh=0 / rc_lookahead=50 / rc=2pass / mbtree=1 / bitrate=1567 / ratetol=1.0 / qcomp=0.60 / qpmin=0 / qpmax=69 / qpstep=4 / cplxblur=20.0 / qblur=0.5 / ip_ratio=1.40 / aq=1:1.00
Язык : English
Default : Да
Forced : Нет

Аудио #1
Идентификатор : 2
Формат : AC-3
Формат/Информация : Audio Coding 3
Расширение режима : CM (complete main)
Параметр Endianness формата : Big
Идентификатор кодека : A_AC3
Продолжительность : 1 ч. 33 м.
Вид битрейта : Постоянный
Битрейт : 448 Кбит/сек
Каналы : 6 каналов
Расположение каналов : Front: L C R, Side: L R, LFE
Частота : 48,0 КГц
Битовая глубина : 16 бит
Метод сжатия : С потерями
Размер потока : 301 Мбайт (20%)
Заголовок : Есарев
Язык : Russian
Default : Да
Forced : Нет

Аудио #2
Идентификатор : 3
Формат : AC-3
Формат/Информация : Audio Coding 3
Расширение режима : CM (complete main)
Параметр Endianness формата : Big
Идентификатор кодека : A_AC3
Продолжительность : 1 ч. 33 м.
Вид битрейта : Постоянный
Битрейт : 192 Кбит/сек
Каналы : 2 канала
Расположение каналов : Front: L R
Частота : 48,0 КГц
Битовая глубина : 16 бит
Метод сжатия : С потерями
Размер потока : 129 Мбайт (9%)
Язык : English
Default : Нет
Forced : Нет

Текст #1
Идентификатор : 4
Формат : UTF-8
Идентификатор кодека : S_TEXT/UTF8
Идентификатор кодека/Информация : UTF-8 Plain Text
Язык : Russian
Default : Да
Forced : Нет

Текст #2
Идентификатор : 5
Формат : UTF-8
Идентификатор кодека : S_TEXT/UTF8
Идентификатор кодека/Информация : UTF-8 Plain Text
Язык : English
Default : Нет
Forced : Нет
pb.wtf



Скачать Дом Хемингуэй через торрент http://i62.fastpic.ru/big/2014/0610/6c/f9266c88bcb759f9714a4d9eeba6e66c.png Скачать, смотреть онлайн Дом Хемингуэй бесплантно в хорошем качестве Описание: Главный герой, виртуозный взломщик сейфов, отличающийся весёлым нравом и цинизмом, но при этом представляющий реальную угрозу. ... 9.7 10 13
Торрент: Зарегистрирован [2014-08-17 18:21] · скачан: 273 раз
Статус: √ проверено
Размер: 1.45 GB
Как cкачать? Как скачать Дом Хемингуэй через торрент | UTorrent

% Раздел Тема Автор DL S | L
Фильмы (DVD фильмы) [ 4.37 GB ] Дом Хемингуэй / Dom Hemingway [2013 DVD5] R5 voovaz Скачать
1 | 0
Фильмы 2013 [DVDrip, WEB-DLRip, HDrip] [ 1.45 GB ] Дом Хемингуэй / Dom Hemingway [2013 WEB-DLRip многоголосый " Russia"] coc900 Скачать
1 | 0
Фильмы 2013 [DVDrip, WEB-DLRip, HDrip] [ 2.18 GB ] Дом Хемингуэй / Dom Hemingway [2013 BDRip многоголосый] Серёжк@ Скачать
1 | 0

28-11-2019 20:33  

Отключить всю рекламу на сайте

17-08-2014 22:30 Дом Хемингуэй Скачать торрент  

Главный персонаж прекрасен. roflpb.wtf



    Дорогой пользователь! Огромная просьба, поблагодарите релизера, оцените раздачу и оставьте свои комментарий, если Вы скачали Дом Хемингуэй через торрент бесплатно!
    Комментировать посты могут только пользователи прошедшие не сложную регистрацию
    Показать сообщения:    

    Дом Хемингуэй через торрент
    Скачать бесплатно Дом Хемингуэй
    Дом Хемингуэй скачать торрент
    Дом Хемингуэй смотреть онлайн
    Cкачать фильм Дом Хемингуэй бесплатно
    Дом Хемингуэй скачать торрент в хорошем качестве
    Дом Хемингуэй смотреть онлайн бесплатно в хорошем качестве


    Вы не можете начинать темы
    Вы не можете отвечать на сообщения
    Вы не можете редактировать свои сообщения
    Вы не можете удалять свои сообщения
    Вы не можете голосовать в опросах
    Вы не можете прикреплять файлы к сообщениям
    Вы можете скачивать файлы