Доктор Стрэндж

Лицензия

Добыча

Дубляж

Дом дракона

1 сезон

Тор

Дубляж

В эфире

Дубляж

Там, где раки поют

MVO

Властелин колец

1 сезон

GLOBAL

pack

Рекомендуем

30

Пиратка

ВАЖНО

ВАЖНО

Ghostwire

Пиратка

jed

RePack

nioh2

RePack

RDR2

RePack

NEED FOR SPEED™ PAYBACK

RePack

скачать торрент

Кинопоиск HD

Острые козырьки 6 сезон

6 сезон

FAR CRY 6

RePack

скачать торрент

Лицензия

скачать торрент

MVO

1

1 сезон

скачать торрент

1 сезон

скачать торрент

Лицензия

  

Дивергент / Divergent (Нил Бёргер) [2014 г., Фантастика, боевик, приключени, Blu-ray, Дубляж]

Дивергент через торрент pb.wtf

Размер: 30.52 GB | Добавлен: 8 лет 3 мес. назад | Торрент скачан:53 раза
Смотреть онлайн | Скачать   

17-08-2014 18:58 Дивергент Скачать торрент  

Дивергент / Divergent
Год выпуска: 2014
Страна: США
Жанр: Фантастика, боевик, приключени
Продолжительность: 02:19:31
Перевод: Дубляж
Субтитры: Нет

Режиссер: Нил Бёргер

В ролях: [cast]Шэйлин Вудли[/cast], Тео Джеймс, Эшли Джадд, Джай Кортни, Рэй Стивенсон, Зои Кравиц, Майлз Теллер, Тони Голдуин, Мэгги Кью, Кейт Уинслет

Описание: Действие развивается на Земле в будущем, в деспотичном Чикаго. Все подростки, достигшие 16 лет, обязаны выбрать одну из пяти фракций и присоединиться к ней на всю оставшуюся жизнь. Каждая фракция представляет определенное качество: Искренность, Отречение, Бесстрашие, Дружелюбие и Эрудиция. Экранизация одноименного романа Вероники Рот.

Качество: Blu-ray
Формат: BDMV
Видео кодек: H.264
Аудио кодек: LPCM
Видео: MPEG-4 AVC, (1920x1080),25102Кбит/с, 23.976 кадра/сек
Аудио#1: LPCM 6 ch,4608 kbps (Rus) 48.0 KHz Дубляж
скриншот   скриншот   скриншот  

Тип потока: Видео
Длительность: 02:19:31
Кодек: AVC
Кодек/описание: Advanced Video Codec
Кодек/профиль: [email protected]
Кодек/ID: 27
Кодек/CABAC: Yes
Кодек/ReFrames: 4 frames
Размеры изображения: 1920 x 1080 (16:9)
Частота кадров: 24.000 fps
Размер потока: 24.7 GiB (81%)
Битрейт: 25.4 Mbps
Битрейт/макс: 33.0 Mbps
Битрейт/тип: VBR
Стандарт: NTSC
Цветовое пространство: YUV
Тип развёртки: Progressive
Колориметрия: 4:2:0
Глубина: 8 bits
:
Тип потока: Звук #1
Длительность: 02:19:31.370
Кодек: PCM
Режим смешивания: Blu-ray
Кодек/ID: 128
Частота дискретизации: 48.0 KHz
Каналов: 6 channels
Битрейт: 4 608 Kbps
Битрейт/тип: Constant
Размер потока: 4.49 GiB (15%)
Глубина: 16 bits




Скачать Дивергент через торрент https://pic1.kartinco.top/images/61/dzdy6.jpg Скачать, смотреть онлайн Дивергент бесплантно в хорошем качестве Описание: Действие развивается на Земле в будущем, в деспотичном Чикаго. Все подростки, достигшие 16 лет, обязаны выбрать одну из пяти ... 9.9 10 8
Info! Золотая раздача, скачанное не засчитывается.
Торрент: Зарегистрирован [2014-08-17 18:58] · скачан: 53 раз
Статус: √ проверено
Размер: 30.52 GB
Как cкачать? Как скачать Дивергент через торрент | UTorrent

% Раздел Тема Автор DL S | L
Ultra HD (UHD: 2K, 4K, 8K) [ 191.12 GB ] Дивергент [Главы 1-3 | DUB | 2160p sheker187 Скачать
1 | 0
Ultra HD (UHD: 2K, 4K, 8K) [ 56.69 GB ] Дивергент / Divergent | Лицензия | 2160p bober100 Скачать
1 | 0
Фильмы [HD 720p, 1080p] (Хороший звук DUB, MVO) [ 6.93 GB ] Дивергент / Divergent | Лицензия | 720p, Дубляж, [Лицензия / iTunes -=DANTE=- Скачать
1 | 0
Фильмы 2014 [DVDrip, WEB-DLRip, HDrip] [ 2.18 GB ] Дивергент / Divergent | Лицензия | BDRip-AVC potroks Скачать
1 | 0
Фильмы 2014 [DVDrip, WEB-DLRip, HDrip] [ 1.37 GB ] Дивергент / Divergent | iTunes | DLRip, Дубляж, iTunes MihailHD Скачать
1 | 0
# Фильмы 2014 [DVDrip, WEB-DLRip, HDrip] [ 2.05 GB ] Дивергент / Divergent | Лицензия" | BDRip, Дубляж "Лицензия" coc900 Скачать
1 | 0
Фильмы 2014 [DVDrip, WEB-DLRip, HDrip] [ 2.06 GB ] Дивергент / Divergent | iTunes | HDRip, Дубляж Ворон Скачать
1 | 0

28-11-2019 20:33  


Отключить вcю реклaмy на сайте, в т.ч. и в плеере онлайн просмотра!

    Дорогой пользователь! Огромная просьба, поблагодарите релизера, оцените раздачу и оставьте свои комментарий, если Вы скачали Дивергент через торрент бесплатно!!
    Комментировать посты могут только пользователи прошедшие не сложную регистрацию
    Показать сообщения:    


    Дивергент через торрент
    Скачать бесплатно Дивергент
    Дивергент скачать торрент
    Дивергент смотреть онлайн
    Cкачать фильм Дивергент бесплатно
    Дивергент скачать торрент в хорошем качестве
    Дивергент смотреть онлайн бесплатно в хорошем качестве
    Вы не можете начинать темы
    Вы не можете отвечать на сообщения
    Вы не можете редактировать свои сообщения
    Вы не можете удалять свои сообщения
    Вы не можете голосовать в опросах
    Вы не можете прикреплять файлы к сообщениям
    Вы можете скачивать файлы
    Дивергент / Divergent [2014 г., Фантастика, боевик, приключени, Blu-ray, Дубляж] смотреть онлайн, скачать торрент picoco.icu