Ссылка на приватное зеркало нашего сайта всего за 1$. Внимание количество ограничено!!!

2 сезон

iTunes

1 сезон

1

2 сезон

2 сезон

iTunes

1 сезон

RePack

30

Ultimate

ВАЖНО

ИГРА 18+

pack

RePack

MK11
pack

Забери бонус

RePack

jed

!!Акция!!

Alien_Rage

RePack

fifa19

RePack

Assassins Creed: Odyssey

RePack

NEED FOR SPEED™ PAYBACK

4 сезон

9 сезон

Бесстыжие 9 сезон

Все сериалы

все сериалы на PB.wtf

RePack

FAR CRY 5
  

Благородная женщина / The Honourable Woman / Сезон: 1 / Серии 1-8 из 8 (Хьюго Блик / Hugo Blick) [2014, Великобритания, США, триллер, драма, WEB-DLRip-AVC, MVO] [BaibaKo] pb.wtf

Благородная женщина через торрент pb.wtf

Размер: 6.27 GB | Добавлен: 6 лет 2 мес. назад | Торрент скачан:9 раз
Скачать  

18-08-2014 01:13 Благородная женщина Скачать торрент  

Благородная женщина / The Honourable Woman
«Вы доверяли бы этой женщине?»


  • Год выпуска: 2014
  • Страна: Великобритания, США
  • Жанр: триллер, драма
  • Продолжительность: 00:58:12
  • Перевод: Профессиональный многоголосый закадровый [BaibaKo]

  • Режиссер: Хьюго Блик / Hugo Blick
  • В ролях:

    Мэгги Джилленхол (Nessa Stein), Лубна Азабаль (Atika Halibi), Кэтрин Паркинсон (Rachel), Ив Бест (Monica Chatwin), Стивен Ри (Hugh Hayden-Hoyle), Джанет МакТир (Julia Walsh), Эндрю Бачан (Ephra Stein), Женевьев О’Рейли (Frances), Пол Херцберг (Daniel Borgoraz), Тобиаш Мензес (Nathaniel Bloom), Мартин Хатсон (Max Boorman), Игал Наор (Shlomo Zahary)

  • Описание:
    История о Нессе Штейн, женщине, которой по наследству достается оружейный бизнес отца, в результате чего она оказывается втянутой в события международного масштаба, пытаясь содействовать примирению между израильтянами и палестинцами.
  • Рейтинг:



  • Качество: WEB-DLRip-AVC
  • Формат: :MPEG-4
  • Видео кодек: AVC
  • Аудио кодек: AAC LC
  • Видео: 720x400 (16:9), 1536 kbps, 25 fps, 0,213 bpp
  • Аудио №1: русский / 2.0 / 48 kHz / 192 kbps
  • Аудио №2: английский / 2.0 / 48 kHz / 192 kbps
  • Релиз от: GEKADOL
    Не нашли то, что искали? Для вас "Стол заказов" "Жмём сюда!"

    Код:

    Внимание! Раздача ведётся путём добавления новых серий; при каждом добавлении создаётся новый торрент. Чтобы начать докачку новой серии, пользователям необходимо сделать следующее:
    (1) остановить скачивание,
    (2) удалить старый торрент у себя из клиента (старые серии удалять не надо),
    (3) скачать новый торрент и запустить его у себя в клиенте вместо старого, при этом указать клиенту путь в старую папку куда и должно происходить скачивание новых серий.
    Ваш клиент при этом должен произвести хеширование (проверку) старой папки (если не производит сам - помогите ему сделать это), и будет докачивать только те серии которых у вас ещё нет. Старые серии при этом не удаляются, а продолжают раздаваться!
    Eсли вы уже удалили старые серии, то предотвратить повторную закачку старых серий можно, отжав галочку в соответсвующих местах при запуске нового торрента. По возможности, желательно не удалять старые серии как можно дольше чтобы релизёр не столько продолжал раздавать старые серии, а смог сконцентрироваться на новых.


    Код:

    General
    Complete name                            : G:\Благородная женщина(Сезон 1)\The.Honourable.Woman.s01e01.WEB-DLRip.x264.Rus.Eng.BaibaKo.tv.mp4
    Format                                   : MPEG-4
    Format profile                           : Base Media
    Codec ID                                 : isom
    File size                                : 799 MiB
    Duration                                 : 58mn 12s
    Overall bit rate mode                    : Variable
    Overall bit rate                         : 1 919 Kbps
    Encoded date                             : UTC 2014-08-08 09:23:02
    Tagged date                              : UTC 2014-08-08 09:23:02

    Video
    ID                                       : 1
    Format                                   : AVC
    Format/Info                              : Advanced Video Codec
    Format profile                           : Baseline@L3.0
    Format settings, CABAC                   : No
    Format settings, ReFrames                : 3 frames
    Codec ID                                 : avc1
    Codec ID/Info                            : Advanced Video Coding
    Duration                                 : 58mn 11s
    Bit rate                                 : 1 536 Kbps
    Maximum bit rate                         : 8 888 Kbps
    Width                                    : 720 pixels
    Height                                   : 400 pixels
    Display aspect ratio                     : 16:9
    Frame rate mode                          : Constant
    Frame rate                               : 25.000 fps
    Color space                              : YUV
    Chroma subsampling                       : 4:2:0
    Bit depth                                : 8 bits
    Scan type                                : Progressive
    Bits/(Pixel*Frame)                       : 0.213
    Stream size                              : 639 MiB (80%)
    Writing library                          : x264 core 130 r2273 b3065e6
    Encoding settings                        : cabac=0 / ref=3 / deblock=1:0:0 / analyse=0x1:0x111 / me=hex / subme=7 / psy=1 / psy_rd=1.00:0.00 / mixed_ref=1 / me_range=16 / chroma_me=1 / trellis=1 / 8x8dct=0 / cqm=0 / deadzone=21,11 / fast_pskip=1 / chroma_qp_offset=-2 / threads=12 / lookahead_threads=2 / sliced_threads=0 / nr=0 / decimate=1 / interlaced=0 / bluray_compat=0 / constrained_intra=0 / bframes=0 / weightp=0 / keyint=250 / keyint_min=25 / scenecut=40 / intra_refresh=0 / rc_lookahead=40 / rc=2pass / mbtree=1 / bitrate=1536 / ratetol=1.0 / qcomp=0.60 / qpmin=0 / qpmax=69 / qpstep=4 / cplxblur=20.0 / qblur=0.5 / ip_ratio=1.40 / aq=1:1.00
    Encoded date                             : UTC 2014-08-01 22:47:41
    Tagged date                              : UTC 2014-08-08 09:23:17
    Color primaries                          : BT.709-5, BT.1361, IEC 61966-2-4, SMPTE RP177
    Transfer characteristics                 : BT.709-5, BT.1361
    Matrix coefficients                      : BT.709-5, BT.1361, IEC 61966-2-4 709, SMPTE RP177

    Audio #1
    ID                                       : 2
    Format                                   : AAC
    Format/Info                              : Advanced Audio Codec
    Format profile                           : LC
    Codec ID                                 : 67
    Duration                                 : 58mn 12s
    Bit rate mode                            : Variable
    Bit rate                                 : 192 Kbps
    Maximum bit rate                         : 195 Kbps
    Channel(s)                               : 2 channels
    Channel positions                        : Front: L R
    Sampling rate                            : 48.0 KHz
    Compression mode                         : Lossy
    Stream size                              : 78.8 MiB (10%)
    Language                                 : Russian
    Encoded date                             : UTC 2014-08-08 09:23:10
    Tagged date                              : UTC 2014-08-08 09:23:17

    Audio #2
    ID                                       : 3
    Format                                   : AAC
    Format/Info                              : Advanced Audio Codec
    Format profile                           : LC
    Codec ID                                 : 67
    Duration                                 : 58mn 12s
    Bit rate mode                            : Variable
    Bit rate                                 : 192 Kbps
    Maximum bit rate                         : 195 Kbps
    Channel(s)                               : 2 channels
    Channel positions                        : Front: L R
    Sampling rate                            : 48.0 KHz
    Compression mode                         : Lossy
    Stream size                              : 78.8 MiB (10%)
    Language                                 : English
    Encoded date                             : UTC 2014-08-08 09:23:14
    Tagged date                              : UTC 2014-08-08 09:23:17


    Скриншоты:
    скриншот   скриншот   скриншот   скриншот   скриншот   скриншот  

    Раздача ведётся путём добавления новых серий. Добавлена 8 заключительная серия (10.09.2014).Просьба перекачать торрент файл.

    pb.wtf



  • Скачать Благородная женщина через торрент http://i65.fastpic.ru/big/2014/0818/c0/ceb70eafee10dd092acafa45ae2c29c0.jpg Скачать фильм Благородная женщина через торрент бесплантно в хорошем качестве Описание: История о Нессе Штейн, женщине, которой по наследству достается оружейный бизнес отца, в результате чего она оказывается ... 8.1 10 7
    Info! Золотая раздача, скачанное не засчитывается.
    Торрент: Зарегистрирован [2014-09-10 11:36] · скачан: 9 раз
    Статус: √ проверено
    Размер: 6.27 GB
    Как cкачать? Как скачать Благородная женщина через торрент | qTorrent



    Последний раз редактировалось: GEKADOL (2014-09-10 11:35), всего редактировалось 9 раз(а)

    28-11-2019 20:33  

    Отключить всю рекламу на сайте

    18-08-2014 12:59 Благородная женщина Скачать торрент  

    Цитата:

    пытаясь содействовать примирению между израильтянами и палестинцами.

    надо полагать - продавая оружие и тем, и другимpb.wtf



    10-09-2014 13:12 Благородная женщина Скачать торрент  

    sergunka писал(а):

    Цитата:

    пытаясь содействовать примирению между израильтянами и палестинцами.

    надо полагать - продавая оружие и тем, и другим

    Я не знаю, уместен ли тут смех, но я заржал в голос)pb.wtf



      Дорогой пользователь! Огромная просьба, поблагодарите релизера, оцените раздачу и оставьте свои комментарий, если Вы скачали Благородная женщина через торрент бесплатно! Внесите свою лепту в развитие PiratBit!
      Комментировать посты могут только пользователи прошедшие не сложную регистрацию
      Показать сообщения:    

      Благородная женщина через торрент
      Скачать бесплатно Благородная женщина
      Благородная женщина скачать торрент
      Благородная женщина смотреть онлайн
      Cкачать фильм Благородная женщина бесплатно
      Благородная женщина скачать торрент в хорошем качестве
      Благородная женщина смотреть онлайн бесплатно в хорошем качестве


      Вы не можете начинать темы
      Вы не можете отвечать на сообщения
      Вы не можете редактировать свои сообщения
      Вы не можете удалять свои сообщения
      Вы не можете голосовать в опросах
      Вы не можете прикреплять файлы к сообщениям
      Вы можете скачивать файлы