Ссылка на приватное зеркало всего за 1$. Внимание количество ограничено!!!

iTunes

iTunes

iTunes

1

iTunes

iTunes

iTunes

iTunes

iTunes

30
pack

$ от Little Big

ВАЖНО

!!Акция!!

Alien_RageХит недели

RePack

Resident Evil 21

ИГРА 18+

pack

RePack

jed

!!Акция!!

Alien_Rage

RePack

fifa19

RePack

Assassins Creed: Odyssey

RePack

NEED FOR SPEED™ PAYBACK

4 сезон

9 сезон

Бесстыжие 9 сезон

Все сериалы

все сериалы на PB.wtf

RePack

FAR CRY 5
  

WTF! Какого черта? / N'importe qui (Рафаэль Фридман / Raphaël Frydman) [2014, Франция, комедия, WEB-DL 1080p, Дубляж] iTunes pb.wtf

WTF! Какого черта? через торрент pb.wtf

Размер: 2.96 GB | Добавлен: 5 лет 10 мес. назад | Торрент скачан:668 раз
Скачать  

18-08-2014 05:42 WTF! Какого черта? Скачать торрент  

WTF! Какого черта? / N'importe qui


  • Год выпуска: 2014
  • Страна: Франция
  • Жанр: комедия
  • Продолжительность: 01:17:32
  • Перевод: Дубляж - [Лицензия / iTunes]

  • Режиссер: Рафаэль Фридман / Raphaël Frydman
  • В ролях:

    Реми Гайяр, Патрик Рейналь, Франк Брюно, Элбан Иванофф, Сильвен Катан, Grégory Nardela, Бриджитт Моати, Николь Феррони, Quentin Jodar

  • Описание:
    Реми Гайяр - реальный персонаж Всемирной сети, троллер, провокатор, самый популярный комик инета Европы. Полтора миллиарда просмотров и миллионы фанатов. Пришел день, и он решил остепениться: женился, устроился на работу на автостоянке, пообещал беременной жене, что тоже «уходит в декрет» и бросает свои шалости.
    Но как заглушить талант и буйство фантазии?! Фанаты не могут допустить его ухода.
    Гайяр возвращается!
  • Рейтинг:



  • Качество: WEB-DL 1080p
  • Формат: :MKV
  • Видео кодек: AVC
  • Аудио кодек: AC3
  • Видео: 1920x1080 (16:9), 4979 kbps, 25 fps, 0,096 bpp
  • Аудио: русский / 5.1 / 48 kHz / 384 kbps / 16 bit
  • Релиз от: GEKADOL
    Не нашли то, что искали? Для вас "Стол заказов" "Жмём сюда!"

    Код:

    Общее
    Уникальный идентификатор                 : 221621572798683374162232378476709686207 (0xA6BAC3288D34544F9F534B1233C22BBF)
    Полное имя                               : D:\Фильмы\WTF.Kakogo.4erta.2014.D.WEB-DL.1080p.mkv
    Формат                                   : Matroska
    Версия формата                           : Version 4 / Version 2
    Размер файла                             : 2,96 Гбайт
    Продолжительность                        : 1 ч. 17 м.
    Общий поток                              : 5472 Кбит/сек
    Дата кодирования                         : UTC 2014-08-17 20:08:57
    Программа кодирования                    : mkvmerge v6.9.1 ('Blue Panther') 64bit built on Apr 18 2014 18:23:38
    Библиотека кодирования                   : libebml v1.3.0 + libmatroska v1.4.1

    Видео
    Идентификатор                            : 1
    Формат                                   : AVC
    Формат/Информация                        : Advanced Video Codec
    Профиль формата                          : High@L4.0
    Параметр CABAC формата                   : Да
    Параметр ReFrames формата                : 4 кадра
    Идентификатор кодека                     : V_MPEG4/ISO/AVC
    Продолжительность                        : 1 ч. 17 м.
    Битрейт                                  : 4979 Кбит/сек
    Ширина                                   : 1920 пикселей
    Высота                                   : 1080 пикселей
    Соотношение сторон                       : 16:9
    Режим частоты кадров                     : Постоянный
    Частота кадров                           : 25,000 кадров/сек
    Цветовое пространство                    : YUV
    Субдискретизация насыщенности            : 4:2:0
    Битовая глубина                          : 8 бит
    Тип развёртки                            : Прогрессивная
    Бит/(Пиксели*Кадры)                      : 0.096
    Размер потока                            : 2,70 Гбайт (91%)
    Язык                                     : English
    Default                                  : Да
    Forced                                   : Нет
    Основные цвета                           : BT.709
    Характеристики трансфера                 : BT.709
    Коэффициенты матрицы                     : BT.709

    Аудио
    Идентификатор                            : 2
    Формат                                   : AC-3
    Формат/Информация                        : Audio Coding 3
    Расширение режима                        : CM (complete main)
    Параметр Endianness формата              : Big
    Идентификатор кодека                     : A_AC3
    Продолжительность                        : 1 ч. 17 м.
    Вид битрейта                             : Постоянный
    Битрейт                                  : 384 Кбит/сек
    Каналы                                   : 6 каналов
    Расположение каналов                     : Front: L C R, Side: L R, LFE
    Частота                                  : 48,0 КГц
    Битовая глубина                          : 16 бит
    Метод сжатия                             : С потерями
    Размер потока                            : 213 Мбайт (7%)
    Язык                                     : Russian
    Default                                  : Да
    Forced                                   : Нет

    Меню
    00:00:00.000                             : en:Глава 1
    00:06:23.000                             : en:Глава 2
    00:11:24.000                             : en:Глава 3
    00:16:28.000                             : en:Глава 4
    00:21:37.000                             : en:Глава 5
    00:26:40.000                             : en:Глава 6
    00:31:45.000                             : en:Глава 7
    00:36:46.000                             : en:Глава 8
    00:41:51.000                             : en:Глава 9
    00:46:54.000                             : en:Глава 10
    00:51:57.000                             : en:Глава 11
    00:57:03.000                             : en:Глава 12
    01:02:38.000                             : en:Глава 13
    01:07:40.000                             : en:Глава 14
    01:13:09.000                             : en:Глава 15


    Скриншоты:


    pb.wtf



  • Скачать WTF! Какого черта? через торрент http://i64.fastpic.ru/big/2014/0818/81/45ab00c703c6609575d89589bf81a481.jpg Скачать фильм WTF! Какого черта? через торрент бесплантно в хорошем качестве Описание: Реми Гайяр - реальный персонаж Всемирной сети, троллер, провокатор, самый популярный комик инета Европы. Полтора миллиарда ... 9.4 10 18
    Торрент: Зарегистрирован [2014-08-18 05:42] · скачан: 668 раз
    Статус: √ проверено
    Размер: 2.96 GB
    Как cкачать? Как скачать WTF! Какого черта? через торрент | qTorrent

    28-11-2019 20:33  

    Отключить всю рекламу на сайте

      Дорогой пользователь! Огромная просьба, поблагодарите релизера, оцените раздачу и оставьте свои комментарий, если Вы скачали WTF! Какого черта? через торрент бесплатно! Внесите свою лепту в развитие PiratBit!
      Комментировать посты могут только пользователи прошедшие не сложную регистрацию
      Показать сообщения:    

      WTF! Какого черта? через торрент
      Скачать бесплатно WTF! Какого черта?
      WTF! Какого черта? скачать торрент
      WTF! Какого черта? смотреть онлайн
      Cкачать фильм WTF! Какого черта? бесплатно
      WTF! Какого черта? скачать торрент в хорошем качестве
      WTF! Какого черта? смотреть онлайн бесплатно в хорошем качестве


      Вы не можете начинать темы
      Вы не можете отвечать на сообщения
      Вы не можете редактировать свои сообщения
      Вы не можете удалять свои сообщения
      Вы не можете голосовать в опросах
      Вы не можете прикреплять файлы к сообщениям
      Вы можете скачивать файлы