Доктор Стрэндж

Лицензия

Добыча

Дубляж

Уэнсдэй

1 сезон

Тор

Дубляж

В эфире

Дубляж

Там, где раки поют

MVO

Властелин колец

1 сезон

Deluxe

pack

Рекомендуем

30

Пиратка

ВАЖНО

ВАЖНО

Ghostwire

Пиратка

jed

RePack

nioh2

RePack

RDR2

RePack

NEED FOR SPEED™ PAYBACK

RePack

скачать торрент

Кинопоиск HD

Острые козырьки 6 сезон

6 сезон

FAR CRY 6

RePack

скачать торрент

Лицензия

скачать торрент

MVO

1

1 сезон

скачать торрент

1 сезон

скачать торрент

Лицензия

  

WTF! Какого черта? / N'importe qui (Рафаэль Фридман) [2014 г., комедия, WEB-DLRip, Дубляж] (iTunes)

WTF! Какого черта? через торрент pb.wtf

Размер: 889 MB | Добавлен: 8 лет 3 мес. назад | Торрент скачан:34 раза
| Скачать   

18-08-2014 14:09 WTF! Какого черта? Скачать торрент  

WTF! Какого черта? / N'importe qui

Год выпуска: 2014
Страна: Франция
Выпущено: Why Not Productions
Жанр: Комедия
Продолжительность: 01:17:32
Перевод: Дубляж (iTunes)

Режиссер: Рафаэль Фридман
Продюссер: Паскаль Кочето
Сценарий: Рафаэль Фридман
Бюджет: $129 789
Премьера в мире: 5 марта 2014

IMDB 6.30 (101)


В ролях: Реми Гайяр, Патрик Рейналь, Франк Брюно, Элбан Иванофф, Сильвен Катан, Grégory Nardela, Бриджитт Моати, Николь Феррони, Quentin Jodar

Описание: Реми Гайяр — реальный персонаж Всемирной сети, троллер, провокатор, самый популярный комик инета Европы. Полтора миллиарда просмотров и миллионы фанатов. Пришел день, и он решил остепениться: женился, устроился на работу на автостоянке, пообещал беременной жене, что тоже «уходит в декрет» и бросает свои шалости. Но как заглушить талант и буйство фантазии?! Фанаты не могут допустить его ухода. Гайяр возвращается!



Качество: WEB-DLRip
Формат: MP4
Видео кодек: AVC
Аудио кодек: AAC LC
Видео: AVC, 640x360 (16:9), 25.000 fps, 1 469 Kbps (0.255 bit/pixel)
Аудио: AAC LC, 48.0 KHz, 2 ch, 128 Kbps, VBR
x264 [info]: profile High, level 4.1
x264 [info]: frame I:978 Avg QP:13.28 size: 62663
x264 [info]: frame P:30216 Avg QP:16.89 size: 15735
x264 [info]: frame B:85121 Avg QP:21.68 size: 3728
x264 [info]: consecutive B-frames: 2.3% 6.3% 5.8% 61.5% 8.4% 9.5% 2.0% 2.1% 0.6% 0.4% 0.2% 0.3% 0.6%
x264 [info]: ref P L0: 59.9% 12.3% 11.5% 5.0% 3.3% 2.7% 2.1% 1.5% 1.5% 0.2% 0.0%
x264 [info]: ref B L0: 83.6% 7.7% 3.7% 1.8% 1.3% 1.0% 0.6% 0.3%
x264 [info]: ref B L1: 94.8% 5.2%
x264 [info]: kb/s:1468.50
Format : MPEG-4
Format profile : Base Media
Codec ID : isom
File size : 889 MiB
Duration : 1h 17mn
Overall bit rate mode : Variable
Overall bit rate : 1 603 Kbps
Writing application : Lavf53.19.0

Video
ID : 1
Format : AVC
Format/Info : Advanced Video Codec
Format profile : [email protected]
Format settings, CABAC : Yes
Format settings, ReFrames : 9 frames
Codec ID : avc1
Codec ID/Info : Advanced Video Coding
Duration : 1h 17mn
Bit rate : 1 469 Kbps
Width : 640 pixels
Height : 360 pixels
Display aspect ratio : 16:9
Frame rate mode : Constant
Frame rate : 25.000 fps
Color space : YUV
Chroma subsampling : 4:2:0
Bit depth : 8 bits
Scan type : Progressive
Bits/(Pixel*Frame) : 0.255
Stream size : 814 MiB (92%)
Writing library : x264 core 130 r2273 b3065e6
Encoding settings : cabac=1 / ref=9 / deblock=1:-3:-2 / analyse=0x3:0x133 / me=umh /
subme=9 / psy=1 / psy_rd=1.00:0.00 / mixed_ref=1 / me_range=24 / chroma_me=1 / trellis=2 /
8x8dct=1 / cqm=0 / deadzone=21,11 / fast_pskip=1 / chroma_qp_offset=-2 / threads=3 /
lookahead_threads=1 / sliced_threads=0 / nr=0 / decimate=1 / interlaced=0 / bluray_compat=0 /
constrained_intra=0 / bframes=12 / b_pyramid=2 / b_adapt=2 / b_bias=0 / direct=1 / weightb=1 /
open_gop=0 / weightp=2 / keyint=250 / keyint_min=25 / scenecut=40 / intra_refresh=0 /
rc_lookahead=60 / rc=crf / mbtree=1 / crf=17.0 / qcomp=0.60 / qpmin=0 / qpmax=69 / qpstep=4 /
ip_ratio=1.40 / aq=1:1.00

Audio
ID : 2
Format : AAC
Format/Info : Advanced Audio Codec
Format profile : LC
Codec ID : 40
Duration : 1h 17mn
Bit rate mode : Variable
Bit rate : 128 Kbps
Channel(s) : 2 channels
Channel positions : Front: L R
Sampling rate : 48.0 KHz
Compression mode : Lossy
Delay relative to video : 80ms
Stream size : 71.0 MiB (8%)
Сэмпл / Трейлер



Скачать WTF! Какого черта? через торрент http://i65.fastpic.ru/big/2014/0818/7e/cb560a250ab4e748222104e04fcb257e.png Скачать, смотреть онлайн WTF! Какого черта? бесплантно в хорошем качестве Описание: Реми Гайяр — реальный персонаж Всемирной сети, троллер, провокатор, самый популярный комик инета Европы. Полтора миллиарда ... 8.7 10 7
Торрент: Зарегистрирован [2014-08-18 14:09] · скачан: 34 раз
Статус: √ проверено
Размер: 889 MB
Как cкачать? Как скачать WTF! Какого черта? через торрент | UTorrent

28-11-2019 20:33  


Отключить вcю реклaмy на сайте, в т.ч. и в плеере онлайн просмотра!

    Дорогой пользователь! Огромная просьба, поблагодарите релизера, оцените раздачу и оставьте свои комментарий, если Вы скачали WTF! Какого черта? через торрент бесплатно!!
    Комментировать посты могут только пользователи прошедшие не сложную регистрацию
    Показать сообщения:    


    WTF! Какого черта? через торрент
    Скачать бесплатно WTF! Какого черта?
    WTF! Какого черта? скачать торрент
    WTF! Какого черта? смотреть онлайн
    Cкачать фильм WTF! Какого черта? бесплатно
    WTF! Какого черта? скачать торрент в хорошем качестве
    WTF! Какого черта? смотреть онлайн бесплатно в хорошем качестве
    Вы не можете начинать темы
    Вы не можете отвечать на сообщения
    Вы не можете редактировать свои сообщения
    Вы не можете удалять свои сообщения
    Вы не можете голосовать в опросах
    Вы не можете прикреплять файлы к сообщениям
    Вы можете скачивать файлы
    WTF! Какого черта? / N'importe qui [2014 г., комедия, WEB-DLRip, Дубляж] смотреть онлайн, скачать торрент picoco.icu