Достать ножи: Стеклянная луковица

MVO

Добыча

Дубляж

Уэнсдэй

1 сезон

Тор

Дубляж

13 клиническая

1 сезон

Жестокая ночь

MVO

Одни из нас

1 сезон

Deluxe

pack

Рекомендуем

30

Пиратка

ВАЖНО

ВАЖНО

Ghostwire

Пиратка

jed

RePack

nioh2

RePack

RDR2

RePack

NEED FOR SPEED™ PAYBACK

RePack

скачать торрент

Кинопоиск HD

Острые козырьки 6 сезон

6 сезон

FAR CRY 6

RePack

скачать торрент

Лицензия

скачать торрент

MVO

1

1 сезон

скачать торрент

1 сезон

скачать торрент

Лицензия

  

Дивергент / Divergent (Нил Бёргер) [2014 г., фантастика, боевик, триллер, приключения, BDRip, Дубляж "Лицензия"]

Дивергент через торрент pb.wtf

Размер: 2.05 GB | Добавлен: 8 лет 5 мес. назад | Торрент скачан:1585 раз
Смотреть онлайн | Скачать | Поддержите нас   

18-08-2014 16:56 Дивергент Скачать торрент  

Дивергент / Divergent
Год выпуска: 2014
Страна: США / Summit Entertainment, Red Wagon Entertainment
Жанр: фантастика, боевик, триллер, приключения
Продолжительность: 2:19:35
Перевод: Дубляж (Лицензия)

Режиссер: Нил Бёргер

В ролях: Шейлин Вудли, Тео Джеймс, Джай Кортни, Кейт Уинслет, Зои Кравиц, Майлз Теллер, Эшли Джадд, Тони Голдуин, Мэгги Кью, Рэй Стивенсон

Описание: Действие развивается на Земле в будущем, в деспотичном Чикаго. Все подростки, достигшие 16 лет, обязаны выбрать одну из пяти фракций и присоединиться к ней на всю оставшуюся жизнь. Каждая фракция представляет определенное качество: Искренность, Отречение, Бесстрашие, Дружелюбие и Эрудиция.

Качество: BDRip (Рип с Blu-ray RUS 1080p AVC LPCM 5.1)
Формат: AVI
Видео кодек: XviD
Аудио кодек: AC3
Видео: MPEG4, XviD, 720x304 (2.35:1), 24.000 fps, 1 646 Kbps (0.313 bit/pixel)
Аудио: AC-3, 48.0 KHz, 6 ch, 448 Kbps, CBR


Общее
Полное имя : G:\кино\Divergent.2014.BDRip.avi
Формат : AVI
Формат/Информация : Audio Video Interleave
Профиль формата : OpenDML
Размер файла : 2,05 Гбайт
Продолжительность : 2 ч. 19 м.
Общий поток : 2107 Кбит/сек
Программа кодирования : VirtualDubMod 1.5.10.3 | www.virtualdub-fr.org || (build 2550/release)
Библиотека кодирования : VirtualDubMod build 2550/release

Видео
Идентификатор : 0
Формат : MPEG-4 Visual
Профиль формата : Advanced [email protected]
Параметр BVOP формата : 2
Параметр QPel формата : Нет
Параметр GMC формата : Без точки перехода
Параметр матрицы формата : Default (H.263)
Идентификатор кодека : XVID
Идентификатор кодека/Подсказка : XviD
Продолжительность : 2 ч. 19 м.
Битрейт : 1646 Кбит/сек
Ширина : 720 пикселей
Высота : 304 пикселя
Соотношение сторон : 2,35:1
Частота кадров : 24,000 кадра/сек
Цветовое пространство : YUV
Субдискретизация насыщенности : 4:2:0
Битовая глубина : 8 бит
Тип развёртки : Прогрессивная
Метод сжатия : С потерями
Бит/(Пиксели*Кадры) : 0.313
Размер потока : 1,60 Гбайт (78%)
Библиотека кодирования : XviD 1.2.1 (UTC 2008-12-04)

Аудио
Идентификатор : 1
Формат : AC-3
Формат/Информация : Audio Coding 3
Расширение режима : CM (complete main)
Параметр Endianness формата : Big
Идентификатор кодека : 2000
Продолжительность : 2 ч. 19 м.
Вид битрейта : Постоянный
Битрейт : 448 Кбит/сек
Каналы : 6 каналов
Расположение каналов : Front: L C R, Side: L R, LFE
Частота : 48,0 КГц
Битовая глубина : 16 бит
Метод сжатия : С потерями
Размер потока : 447 Мбайт (21%)
Выравнивание : Разделение по промежуткам
Продолжительность промежутка : 42 мс. (1,00 видеокадр)
Время предзагрузки промежутка : 500 мс.

KMessa-fan писал(а):


# сомнительно
адский перекроп, нарушение AR



Скачать Дивергент через торрент https://pic1.kartinco.top/images/61/nkmgk.jpg Скачать, смотреть онлайн Дивергент бесплантно в хорошем качестве Описание: Действие развивается на Земле в будущем, в деспотичном Чикаго. Все подростки, достигшие 16 лет, обязаны выбрать одну из пяти ... 9.1 10 20
Торрент: Зарегистрирован [2014-08-18 16:56] · скачан: 1 585 раз
Статус: # сомнительно
Размер: 2.05 GB
Как cкачать? Как скачать Дивергент через торрент | UTorrent

% Раздел Тема Автор DL S | L
Ultra HD (UHD: 2K, 4K, 8K) [ 191.12 GB ] Дивергент [Главы 1-3 | DUB | 2160p sheker187 Скачать
1 | 0
Ultra HD (UHD: 2K, 4K, 8K) [ 56.69 GB ] Дивергент / Divergent | Лицензия | 2160p bober100 Скачать
1 | 0
Фильмы [HD 720p, 1080p] (Хороший звук DUB, MVO) [ 6.93 GB ] Дивергент / Divergent | Лицензия | 720p, Дубляж, [Лицензия / iTunes -=DANTE=- Скачать
1 | 0
Фильмы 2014 [DVDrip, WEB-DLRip, HDrip] [ 2.18 GB ] Дивергент / Divergent | Лицензия | BDRip-AVC potroks Скачать
1 | 0
Фильмы 2014 [DVDrip, WEB-DLRip, HDrip] [ 1.37 GB ] Дивергент / Divergent | iTunes | DLRip, Дубляж, iTunes MihailHD Скачать
1 | 0
Фильмы 2014 [DVDrip, WEB-DLRip, HDrip] [ 2.06 GB ] Дивергент / Divergent | iTunes | HDRip, Дубляж Ворон Скачать
1 | 0
Фильмы 2014 [DVDrip, WEB-DLRip, HDrip] [ 1.4 GB ] Дивергент / Divergent | Лицензия | HDRip-AVC, Дубляж, Лицензия [iTunes White Smoke Скачать
1 | 0

28-11-2019 20:33  


Отключить вcю реклaмy на сайте, в т.ч. и в плеере онлайн просмотра!

23-03-2015 19:58 Дивергент Скачать торрент  

Ответьте мне пожалуйста, где обрезали кадр? В европейском Blu-Ray или в американском?



14-06-2015 13:15 Дивергент Скачать торрент  

на раздачу



    Дорогой пользователь! Огромная просьба, поблагодарите релизера, оцените раздачу и оставьте свои комментарий, если Вы скачали Дивергент через торрент бесплатно!!
    Комментировать посты могут только пользователи прошедшие не сложную регистрацию
    Показать сообщения:    


    Дивергент через торрент
    Скачать бесплатно Дивергент
    Дивергент скачать торрент
    Дивергент смотреть онлайн
    Cкачать фильм Дивергент бесплатно
    Дивергент скачать торрент в хорошем качестве
    Дивергент смотреть онлайн бесплатно в хорошем качестве
    Вы не можете начинать темы
    Вы не можете отвечать на сообщения
    Вы не можете редактировать свои сообщения
    Вы не можете удалять свои сообщения
    Вы не можете голосовать в опросах
    Вы не можете прикреплять файлы к сообщениям
    Вы можете скачивать файлы
    Дивергент / Divergent [2014 г., фантастика, боевик, триллер, приключения, BDRip, Дубляж "Лицензия"] смотреть онлайн, скачать торрент picoco.icu