Ссылка на приватное зеркало нашего сайта всего за 1$. Внимание количество ограничено!!!

2 сезон

iTunes

1 сезон

1

2 сезон

2 сезон

iTunes

1 сезон

RePack

30

Новинка

ВАЖНО

ИГРА 18+

pack

RePack

MK11
pack

Забери бонус

RePack

jed

!!Акция!!

Alien_Rage

RePack

fifa19

RePack

Assassins Creed: Odyssey

RePack

NEED FOR SPEED™ PAYBACK

4 сезон

9 сезон

Бесстыжие 9 сезон

Все сериалы

все сериалы на PB.wtf

RePack

FAR CRY 5
  

Матрица: Трилогия / The Matrix: Trilogy (Энди Вачовски / Andy Wachowski, Лана Вачовски / Lana Wachowski) [1999-2003, США, Австралия, фантастика, боевик, BDRip 720p / 60 FPS, Dub, MVO, DVO, AVO, VO, Original] pb.wtf

Матрица: Трилогия через торрент pb.wtf

Раздают: 3 [ 0 KB/s ] Качают: 1 [ 0 KB/s ]
Размер: 36.11 GB | Добавлен: 2 года 7 мес. назад | Торрент скачан:227 раз
Скачать  

18-08-2014 18:35 Матрица: Трилогия Скачать торрент  

Перед скачиванием обязательно проверьте Сэмплы на своем оборудовании.
Матрица / The Matrix
Год выпуска: 1999
Страна: США, Австралия
Жанр: Фантастика, боевик
Продолжительность: 02:16:17
Перевод: Дублированный, профессиональный многоголосый, профессиональный двухголосый, Профессиональный одноголосый, авторский
Субтитры: Русские (полные), Английские (полные)

Режиссер: Лилли Вачовски, Лана Вачовски

rating

В ролях: Киану Ривз, Лоуренс Фишборн, Кэрри-Энн Мосс, Хьюго Уивинг, Глория Фостер, Джо Пантолиано, Маркус Чонг, Пол Годдард, Роберт Тэйлор, Джулиэн Араханга, Ада Никодему, Мэтт Доран, Белинда МакКлори, Энтони Рэй Паркер

Описание: Что есть реальность? Есть ли у человека выбор? Действительно ли мы живём или только представляем, что живём, а на самом деле жив только один человеческий орган - мозг, да и тот пребывает в вечном сне. Если это так, то способны ли мы самостоятельно пробудиться или потребуется помощь, возможно, извне? Кто или что и с какой целью усыпило миллиарды людей? Ответы на эти и многие другие вопросы Нео, известный также как Томас Андерсон, получит от легендарного и неуловимого незнакомца Морфиуса. Он вытащит Нео из цепких лап Матрицы, расскажет, что произошло с Землёй в двадцать первом веке, научит многому и покажет казавшееся невозможным доселе... Ведь Морфиус верит, что Нео - Избранный, освободитель человечества и единственный, кто поможет выиграть в неравной схватке с поработившими людей, но созданными ими самими машинами.

Качество: BDRip 720p / 60 FPS
Формат: MKV
Видео кодек: H.264
Аудио кодек: AC3
Видео: AVC, 1280x528 (2.40:1), 8031 kbps, 60.000 fps, 0.198 bpp
Аудио#1: AC3 / 5.1 / 48 kHz / 640 kbps / 16 bit | Дубляж
Аудио#2: AC3 / 5.1 / 48 kHz / 640 kbps / 16 bit | Профессиональный многоголосый
Аудио#3: AC3 / 5.1 / 48 kHz / 640 kbps / 16 bit | Профессиональный двухголосый (П.Гланц & И.Королёва)
Аудио#4: AC3 / 5.1 / 48 kHz / 640 kbps / 16 bit | Авторский (А.Гаврилов)
Аудио#5: AC3 / 5.1 / 48 kHz / 640 kbps / 16 bit | Профессиональный одноголосый (диктор CDV)
Аудио#6: AC3 / 5.1 / 48 kHz / 640 kbps / 16 bit | Авторский (Ю. Живов)
Аудио#7: AC3 / 5.1 / 48 kHz / 640 kbps / 16 bit | Авторский (Д. Пучков)
Аудио#8: AC3 / 5.1 / 48 kHz / 448 kbps / 16 bit | Авторский Д. Пучков (Божья искра)
Аудио#9: AC3 / 2.0 / 48 kHz / 448 kbps / 16 bit | Авторский (А. Кашкин)
Аудио#10: AC3 / 2.0 / 48 kHz / 192 kbps / 16 bit | Профессиональный многоголосый (НТВ)
Аудио#11: AC3 / 2.0 / 48 kHz / 192 kbps / 16 bit | двухголосый TV1000
Аудио#12: AC3 / 2.0 / 48 kHz / 192 kbps / 16 bit | Авторский (С. Визгунов)
Аудио#13: AC3 / 1.0 / 48 kHz / 192 kbps / 16 bit | Авторский А. Дольский (ранний)
Аудио#14: AC3 / 2.0 / 48 kHz / 192 kbps / 16 bit | Авторский А. Дольский (поздний)
Аудио#15: AC3 / 5.1 / 48 kHz / 640 kbps / 16 bit
General
Unique ID : 112091669067171634064023126150691695591 (0x545411F872F24BE6D20F557241402BE7)
Complete name : A:\Матрица (Трилогия) BDRip 720p 60fps\01. Матрица.mkv
Format : Matroska
Format version : Version 4 / Version 2
File size : 14.3 GiB
Duration : 2 h 17 min
Overall bit rate : 14.9 Mb/s
Movie name : Матрица by Tiberiumsun69
Encoded date : UTC 2018-04-09 13:13:58
Writing application : mkvmerge v20.0.0 ('I Am The Sun') 64-bit
Writing library : libebml v1.3.5 + libmatroska v1.4.8

Video
ID : 1
Format : AVC
Format/Info : Advanced Video Codec
Format profile : High@L4.1
Format settings : CABAC / 12 Ref Frames
Format settings, CABAC : Yes
Format settings, ReFrames : 12 frames
Codec ID : V_MPEG4/ISO/AVC
Duration : 2 h 16 min
Bit rate : 8 031 kb/s
Width : 1 280 pixels
Height : 528 pixels
Display aspect ratio : 2.40:1
Frame rate mode : Constant
Frame rate : 60.000 FPS
Color space : YUV
Chroma subsampling : 4:2:0
Bit depth : 8 bits
Scan type : Progressive
Bits/(Pixel*Frame) : 0.198
Stream size : 7.65 GiB (54%)
Writing library : x264 core 146 r2538 121396c
Encoding settings : cabac=1 / ref=12 / deblock=1:-2:-2 / analyse=0x3:0x133 / me=umh / subme=10 / psy=1 / psy_rd=1.00:0.00 / mixed_ref=1 / me_range=32 / chroma_me=1 / trellis=2 / 8x8dct=1 / cqm=0 / deadzone=21,11 / fast_pskip=0 / chroma_qp_offset=-2 / threads=12 / lookahead_threads=2 / sliced_threads=0 / nr=0 / decimate=1 / interlaced=0 / bluray_compat=0 / constrained_intra=0 / bframes=8 / b_pyramid=2 / b_adapt=2 / b_bias=0 / direct=3 / weightb=1 / open_gop=0 / weightp=2 / keyint=250 / keyint_min=25 / scenecut=40 / intra_refresh=0 / rc_lookahead=60 / rc=crf / mbtree=0 / crf=17.0 / qcomp=0.80 / qpmin=0 / qpmax=69 / qpstep=4 / vbv_maxrate=62500 / vbv_bufsize=78125 / crf_max=0.0 / nal_hrd=none / filler=0 / ip_ratio=1.40 / pb_ratio=1.30 / aq=1:1.00
Language : English
Default : Yes
Forced : No

Audio #1
ID : 2
Format : AC-3
Format/Info : Audio Coding 3
Codec ID : A_AC3
Duration : 2 h 16 min
Bit rate mode : Constant
Bit rate : 640 kb/s
Channel(s) : 6 channels
Channel positions : Front: L C R, Side: L R, LFE
Sampling rate : 48.0 kHz
Frame rate : 31.250 FPS (1536 SPF)
Bit depth : 16 bits
Compression mode : Lossy
Delay relative to video : 42 ms
Stream size : 624 MiB (4%)
Title : Russian / Dolby Digital Audio / 640 kbps - дубляж
Language : Russian
Service kind : Complete Main
Default : No
Forced : No

Audio #2
ID : 3
Format : AC-3
Format/Info : Audio Coding 3
Codec ID : A_AC3
Duration : 2 h 16 min
Bit rate mode : Constant
Bit rate : 640 kb/s
Channel(s) : 6 channels
Channel positions : Front: L C R, Side: L R, LFE
Sampling rate : 48.0 kHz
Frame rate : 31.250 FPS (1536 SPF)
Bit depth : 16 bits
Compression mode : Lossy
Stream size : 624 MiB (4%)
Title : Russian / Dolby Digital Audio / 640 kbps, 6 ch - Профессиональный многоголосый
Language : Russian
Service kind : Complete Main
Default : No
Forced : No

Audio #3
ID : 4
Format : AC-3
Format/Info : Audio Coding 3
Codec ID : A_AC3
Duration : 2 h 16 min
Bit rate mode : Constant
Bit rate : 640 kb/s
Channel(s) : 6 channels
Channel positions : Front: L C R, Side: L R, LFE
Sampling rate : 48.0 kHz
Frame rate : 31.250 FPS (1536 SPF)
Bit depth : 16 bits
Compression mode : Lossy
Stream size : 624 MiB (4%)
Title : Russian / Dolby Digital Audio / 640 kbps, 6 ch - Профессиональный двухголосый (П.Гланц & И.Королёва)
Language : Russian
Service kind : Complete Main
Default : No
Forced : No

Audio #4
ID : 5
Format : AC-3
Format/Info : Audio Coding 3
Codec ID : A_AC3
Duration : 2 h 16 min
Bit rate mode : Constant
Bit rate : 640 kb/s
Channel(s) : 6 channels
Channel positions : Front: L C R, Side: L R, LFE
Sampling rate : 48.0 kHz
Frame rate : 31.250 FPS (1536 SPF)
Bit depth : 16 bits
Compression mode : Lossy
Stream size : 624 MiB (4%)
Title : Russian / Dolby Digital Audio / 640 kbps, 6 ch - Авторский А.Гаврилов
Language : Russian
Service kind : Complete Main
Default : No
Forced : No

Audio #5
ID : 6
Format : AC-3
Format/Info : Audio Coding 3
Codec ID : A_AC3
Duration : 2 h 16 min
Bit rate mode : Constant
Bit rate : 640 kb/s
Channel(s) : 6 channels
Channel positions : Front: L C R, Side: L R, LFE
Sampling rate : 48.0 kHz
Frame rate : 31.250 FPS (1536 SPF)
Bit depth : 16 bits
Compression mode : Lossy
Stream size : 624 MiB (4%)
Title : Russian / Dolby Digital Audio / 640 kbps, 6 ch - Профессиональный одноголосый (диктор CDV)
Language : Russian
Service kind : Complete Main
Default : No
Forced : No

Audio #6
ID : 7
Format : AC-3
Format/Info : Audio Coding 3
Codec ID : A_AC3
Duration : 2 h 16 min
Bit rate mode : Constant
Bit rate : 640 kb/s
Channel(s) : 6 channels
Channel positions : Front: L C R, Side: L R, LFE
Sampling rate : 48.0 kHz
Frame rate : 31.250 FPS (1536 SPF)
Bit depth : 16 bits
Compression mode : Lossy
Stream size : 624 MiB (4%)
Title : Russian / Dolby Digital Audio / 640 kbps, 6 ch - Авторский Ю. Живов
Language : Russian
Service kind : Complete Main
Default : No
Forced : No

Audio #7
ID : 8
Format : AC-3
Format/Info : Audio Coding 3
Codec ID : A_AC3
Duration : 2 h 16 min
Bit rate mode : Constant
Bit rate : 640 kb/s
Channel(s) : 6 channels
Channel positions : Front: L C R, Side: L R, LFE
Sampling rate : 48.0 kHz
Frame rate : 31.250 FPS (1536 SPF)
Bit depth : 16 bits
Compression mode : Lossy
Stream size : 624 MiB (4%)
Title : Russian / Dolby Digital Audio / 640 kbps, 6 ch - Авторский Д. Пучков
Language : Russian
Service kind : Complete Main
Default : No
Forced : No

Audio #8
ID : 9
Format : AC-3
Format/Info : Audio Coding 3
Codec ID : A_AC3
Duration : 2 h 17 min
Bit rate mode : Constant
Bit rate : 448 kb/s
Channel(s) : 6 channels
Channel positions : Front: L C R, Side: L R, LFE
Sampling rate : 48.0 kHz
Frame rate : 31.250 FPS (1536 SPF)
Bit depth : 16 bits
Compression mode : Lossy
Stream size : 439 MiB (3%)
Title : Russian / Dolby Digital Audio / 448 kbps, 6 ch - Авторский Д. Пучков (Божья искра)
Language : Russian
Service kind : Complete Main
Default : No
Forced : No

Audio #9
ID : 10
Format : AC-3
Format/Info : Audio Coding 3
Codec ID : A_AC3
Duration : 2 h 14 min
Bit rate mode : Constant
Bit rate : 448 kb/s
Channel(s) : 2 channels
Channel positions : Front: L R
Sampling rate : 48.0 kHz
Frame rate : 31.250 FPS (1536 SPF)
Bit depth : 16 bits
Compression mode : Lossy
Stream size : 432 MiB (3%)
Title : Russian / Dolby Digital Audio / 448 kbps, 2.0 ch - Авторский А. Кашкин
Language : Russian
Service kind : Complete Main
Default : No
Forced : No

Audio #10
ID : 11
Format : AC-3
Format/Info : Audio Coding 3
Codec ID : A_AC3
Duration : 2 h 16 min
Bit rate mode : Constant
Bit rate : 192 kb/s
Channel(s) : 2 channels
Channel positions : Front: L R
Sampling rate : 48.0 kHz
Frame rate : 31.250 FPS (1536 SPF)
Bit depth : 16 bits
Compression mode : Lossy
Stream size : 187 MiB (1%)
Title : Russian / Dolby Digital Audio / 192 kbps, 2.0 ch - Профессиональный многоголосый (НТВ)
Language : Russian
Service kind : Complete Main
Default : No
Forced : No

Audio #11
ID : 12
Format : AC-3
Format/Info : Audio Coding 3
Codec ID : A_AC3
Duration : 2 h 16 min
Bit rate mode : Constant
Bit rate : 192 kb/s
Channel(s) : 2 channels
Channel positions : Front: L R
Sampling rate : 48.0 kHz
Frame rate : 31.250 FPS (1536 SPF)
Bit depth : 16 bits
Compression mode : Lossy
Stream size : 187 MiB (1%)
Title : Russian / Dolby Digital Audio / 192 kbps, 2.0 ch - двухголосый TV1000
Language : Russian
Service kind : Complete Main
Default : No
Forced : No

Audio #12
ID : 13
Format : AC-3
Format/Info : Audio Coding 3
Codec ID : A_AC3
Duration : 2 h 16 min
Bit rate mode : Constant
Bit rate : 192 kb/s
Channel(s) : 2 channels
Channel positions : Front: L R
Sampling rate : 48.0 kHz
Frame rate : 31.250 FPS (1536 SPF)
Bit depth : 16 bits
Compression mode : Lossy
Stream size : 187 MiB (1%)
Title : Russian / Dolby Digital Audio / 192 kbps, 2.0 ch - Авторский С. Визгунов
Language : Russian
Service kind : Complete Main
Default : No
Forced : No

Audio #13
ID : 14
Format : AC-3
Format/Info : Audio Coding 3
Codec ID : A_AC3
Duration : 2 h 13 min
Bit rate mode : Constant
Bit rate : 192 kb/s
Channel(s) : 2 channels
Channel positions : Front: L R
Sampling rate : 48.0 kHz
Frame rate : 31.250 FPS (1536 SPF)
Bit depth : 16 bits
Compression mode : Lossy
Stream size : 183 MiB (1%)
Title : Russian / Dolby Digital Audio / 192 kbps, 1.0 ch - Авторский А. Дольский (ранний)
Language : Russian
Service kind : Complete Main
Default : No
Forced : No

Audio #14
ID : 15
Format : AC-3
Format/Info : Audio Coding 3
Codec ID : A_AC3
Duration : 2 h 13 min
Bit rate mode : Constant
Bit rate : 192 kb/s
Channel(s) : 1 channel
Channel positions : Front: C
Sampling rate : 48.0 kHz
Frame rate : 31.250 FPS (1536 SPF)
Bit depth : 16 bits
Compression mode : Lossy
Stream size : 183 MiB (1%)
Title : Russian / Dolby Digital Audio / 192 kbps, 2.0 ch - Авторский А. Дольский (поздний)
Language : Russian
Service kind : Complete Main
Default : No
Forced : No

Audio #15
ID : 16
Format : AC-3
Format/Info : Audio Coding 3
Codec ID : A_AC3
Duration : 2 h 16 min
Bit rate mode : Constant
Bit rate : 640 kb/s
Channel(s) : 6 channels
Channel positions : Front: L C R, Side: L R, LFE
Sampling rate : 48.0 kHz
Frame rate : 31.250 FPS (1536 SPF)
Bit depth : 16 bits
Compression mode : Lossy
Stream size : 624 MiB (4%)
Title : English / Dolby Digital Audio / 640 kbps - Оригинал
Language : English
Service kind : Complete Main
Default : No
Forced : No

Text #1
ID : 17
Format : UTF-8
Codec ID : S_TEXT/UTF8
Codec ID/Info : UTF-8 Plain Text
Duration : 2 h 15 min
Bit rate : 63 b/s
Count of elements : 1370
Stream size : 63.0 KiB (0%)
Title : Русские
Language : Russian
Default : No
Forced : No

Text #2
ID : 18
Format : UTF-8
Codec ID : S_TEXT/UTF8
Codec ID/Info : UTF-8 Plain Text
Duration : 2 h 7 min
Bit rate : 41 b/s
Count of elements : 1343
Stream size : 38.8 KiB (0%)
Title : Английские
Language : English
Default : No
Forced : No

Menu
00:00:00.000 : en:Chapter 1
00:03:25.789 : en:Chapter 2
00:06:35.645 : en:Chapter 3
00:09:42.665 : en:Chapter 4
00:11:58.301 : en:Chapter 5
00:16:47.423 : en:Chapter 6
00:21:33.542 : en:Chapter 7
00:25:08.590 : en:Chapter 8
00:28:51.146 : en:Chapter 9
00:32:25.193 : en:Chapter 10
00:35:21.870 : en:Chapter 11
00:38:40.902 : en:Chapter 12
00:44:22.577 : en:Chapter 13
00:46:33.541 : en:Chapter 14
00:48:57.852 : en:Chapter 15
00:53:31.291 : en:Chapter 16
00:56:32.139 : en:Chapter 17
00:59:01.288 : en:Chapter 18
01:01:08.582 : en:Chapter 19
01:05:16.496 : en:Chapter 20
01:07:46.813 : en:Chapter 21
01:12:33.432 : en:Chapter 22
01:17:49.582 : en:Chapter 23
01:21:03.108 : en:Chapter 24
01:25:05.350 : en:Chapter 25
01:29:45.130 : en:Chapter 26
01:31:27.565 : en:Chapter 27
01:37:25.256 : en:Chapter 28
01:41:04.976 : en:Chapter 29
01:44:20.337 : en:Chapter 30
01:47:00.497 : en:Chapter 31
01:50:18.529 : en:Chapter 32
01:52:56.687 : en:Chapter 33
01:56:36.907 : en:Chapter 34
01:58:49.372 : en:Chapter 35
02:02:27.423 : en:Chapter 36
02:05:41.784 : en:Chapter 37
02:08:46.802 : en:Chapter 38
02:09:30.262 : en:Chapter 39
02:11:20.164 : en:Chapter 40
Матрица: Перезагрузка / The Matrix: Reloaded
Год выпуска: 2003
Страна: США, Австралия
Жанр: фантастика, боевик
Продолжительность: 02:18:15
Перевод: Дублированный, профессиональный многоголосый, профессиональный двухголосый, авторский
Субтитры: Русские (полные), Английские (полные)

Режиссер: Лилли Вачовски, Лана Вачовски

rating

В ролях: Лоуренс Фишборн, Киану Ривз, Хьюго Уивинг, Моника Белуччи, Джада Пинкетт Смит, Харольд Перрино-мл., Ламбер Уилсон, Кэрри-Энн Мосс, Хэрри Дж. Ленникс, Клэйтон Уотсон, Дэниэл Бернхардт, Мэтт МакКолм, Кристин Ану

Описание: Морфиус сделал своё дело, освободив тело и разум Нео от пагубного влияния Матрицы. Теперь дело за малым: нужно всего лишь спасти жителей единственного человеческого города Зиона. Но перед этим Избранный должен похитить Мастера ключей, чтобы тот помог добраться до Архитектора, создателя Матрицы. На пути к этому Нео, Морфиусу и Тринити будут усиленно вставлять палки в колёса Меровинген, в чьих подвалах за семью замками трудится Мастер ключей, непонятно откуда взявшийся агент Смит, который научился самокопированию, братья-альбиносы, практически неуязвимые охранники Меровингена и, конечно же, машины, созданные с одной целью - убивать людей.

Качество: BDRip 720p / 60 FPS
Формат: MKV
Видео кодек: H.264
Аудио кодек: AC3
Видео: HEVC, 1280x528 (2.40:1), 6724 kbps, 60.000 fps, 0.166 bpp
Аудио#1: AC3 / 5.1 / 48 kHz / 640 kbps / 16 bit | Дубляж
Аудио#2: AC3 / 5.1 / 48 kHz / 640 kbps / 16 bit | Профессиональный двухголосый (П. Гланц и И. Королёва - 2008)
Аудио#3: AC3 / 5.1 / 48 kHz / 640 kbps / 16 bit | Профессиональный двухголосый (П. Гланц и И. Королёва - 2003)
Аудио#4: AC3 / 5.1 / 48 kHz / 640 kbps / 16 bit | Двухголосый
Аудио#5: AC3 / 5.1 / 48 kHz / 640 kbps / 16 bit | Авторский (А. Гаврилов)
Аудио#6: AC3 / 5.1 / 48 kHz / 640 kbps / 16 bit | Авторский (Е. Рудой)
Аудио#7: AC3 / 5.1 / 48 kHz / 640 kbps / 16 bit | Авторский (Ю. Живов)
Аудио#8: AC3 / 5.1 / 48 kHz / 640 kbps / 16 bit
General
Unique ID : 125189095031430710792576282036956817783 (0x5E2E8AED48E20C79CC3975AF2A5FE977)
Complete name : A:\Матрица (Трилогия) BDRip 720p 60fps\02. Матрица. Перезагрузка.mkv
Format : Matroska
Format version : Version 4 / Version 2
File size : 11.4 GiB
Duration : 2 h 18 min
Overall bit rate : 11.9 Mb/s
Movie name : Матрица Перезагрузка by Tiberiumsun69
Encoded date : UTC 2018-04-09 11:25:48
Writing application : mkvmerge v20.0.0 ('I Am The Sun') 64-bit
Writing library : libebml v1.3.5 + libmatroska v1.4.8

Video
ID : 1
Format : AVC
Format/Info : Advanced Video Codec
Format profile : High@L4.1
Format settings : CABAC / 12 Ref Frames
Format settings, CABAC : Yes
Format settings, ReFrames : 12 frames
Codec ID : V_MPEG4/ISO/AVC
Duration : 2 h 18 min
Bit rate : 6 724 kb/s
Width : 1 280 pixels
Height : 528 pixels
Display aspect ratio : 2.40:1
Frame rate mode : Constant
Frame rate : 60.000 FPS
Color space : YUV
Chroma subsampling : 4:2:0
Bit depth : 8 bits
Scan type : Progressive
Bits/(Pixel*Frame) : 0.166
Stream size : 6.49 GiB (57%)
Writing library : x264 core 146 r2538 121396c
Encoding settings : cabac=1 / ref=12 / deblock=1:-2:-2 / analyse=0x3:0x133 / me=umh / subme=10 / psy=1 / psy_rd=1.00:0.00 / mixed_ref=1 / me_range=32 / chroma_me=1 / trellis=2 / 8x8dct=1 / cqm=0 / deadzone=21,11 / fast_pskip=0 / chroma_qp_offset=-2 / threads=12 / lookahead_threads=2 / sliced_threads=0 / nr=0 / decimate=1 / interlaced=0 / bluray_compat=0 / constrained_intra=0 / bframes=8 / b_pyramid=2 / b_adapt=2 / b_bias=0 / direct=3 / weightb=1 / open_gop=0 / weightp=2 / keyint=250 / keyint_min=25 / scenecut=40 / intra_refresh=0 / rc_lookahead=60 / rc=crf / mbtree=0 / crf=17.0 / qcomp=0.80 / qpmin=0 / qpmax=69 / qpstep=4 / vbv_maxrate=62500 / vbv_bufsize=78125 / crf_max=0.0 / nal_hrd=none / filler=0 / ip_ratio=1.40 / pb_ratio=1.30 / aq=1:1.00
Language : English
Default : Yes
Forced : No

Audio #1
ID : 2
Format : AC-3
Format/Info : Audio Coding 3
Codec ID : A_AC3
Duration : 2 h 18 min
Bit rate mode : Constant
Bit rate : 640 kb/s
Channel(s) : 6 channels
Channel positions : Front: L C R, Side: L R, LFE
Sampling rate : 48.0 kHz
Frame rate : 31.250 FPS (1536 SPF)
Bit depth : 16 bits
Compression mode : Lossy
Stream size : 633 MiB (5%)
Title : Russian / Dolby Digital Audio / 640 kbps, 6 ch - дубляж
Language : Russian
Service kind : Complete Main
Default : Yes
Forced : No

Audio #2
ID : 3
Format : AC-3
Format/Info : Audio Coding 3
Codec ID : A_AC3
Duration : 2 h 18 min
Bit rate mode : Constant
Bit rate : 640 kb/s
Channel(s) : 6 channels
Channel positions : Front: L C R, Side: L R, LFE
Sampling rate : 48.0 kHz
Frame rate : 31.250 FPS (1536 SPF)
Bit depth : 16 bits
Compression mode : Lossy
Stream size : 633 MiB (5%)
Title : Russian / Dolby Digital Audio / 640 kbps, 6 ch - Профессиональный двухголосый П. Гланц и И. Королёва (2008 г.)
Language : Russian
Service kind : Complete Main
Default : No
Forced : No

Audio #3
ID : 4
Format : AC-3
Format/Info : Audio Coding 3
Codec ID : A_AC3
Duration : 2 h 18 min
Bit rate mode : Constant
Bit rate : 640 kb/s
Channel(s) : 6 channels
Channel positions : Front: L C R, Side: L R, LFE
Sampling rate : 48.0 kHz
Frame rate : 31.250 FPS (1536 SPF)
Bit depth : 16 bits
Compression mode : Lossy
Stream size : 633 MiB (5%)
Title : Russian / Dolby Digital Audio / 640 kbps, 6 ch - Профессиональный двухголосый П. Гланц и И. Королёва (2003 г.)
Language : Russian
Service kind : Complete Main
Default : No
Forced : No

Audio #4
ID : 5
Format : AC-3
Format/Info : Audio Coding 3
Codec ID : A_AC3
Duration : 2 h 18 min
Bit rate mode : Constant
Bit rate : 640 kb/s
Channel(s) : 6 channels
Channel positions : Front: L C R, Side: L R, LFE
Sampling rate : 48.0 kHz
Frame rate : 31.250 FPS (1536 SPF)
Bit depth : 16 bits
Compression mode : Lossy
Stream size : 633 MiB (5%)
Title : Russian / Dolby Digital Audio / 640 kbps, 6 ch - двухголосый
Language : Russian
Service kind : Complete Main
Default : No
Forced : No

Audio #5
ID : 6
Format : AC-3
Format/Info : Audio Coding 3
Codec ID : A_AC3
Duration : 2 h 18 min
Bit rate mode : Constant
Bit rate : 640 kb/s
Channel(s) : 6 channels
Channel positions : Front: L C R, Side: L R, LFE
Sampling rate : 48.0 kHz
Frame rate : 31.250 FPS (1536 SPF)
Bit depth : 16 bits
Compression mode : Lossy
Stream size : 633 MiB (5%)
Title : Russian / Dolby Digital Audio / 640 kbps, 6 ch - Авторский Гаврилов
Language : Russian
Service kind : Complete Main
Default : No
Forced : No

Audio #6
ID : 7
Format : AC-3
Format/Info : Audio Coding 3
Codec ID : A_AC3
Duration : 2 h 18 min
Bit rate mode : Constant
Bit rate : 640 kb/s
Channel(s) : 6 channels
Channel positions : Front: L C R, Side: L R, LFE
Sampling rate : 48.0 kHz
Frame rate : 31.250 FPS (1536 SPF)
Bit depth : 16 bits
Compression mode : Lossy
Stream size : 633 MiB (5%)
Title : Russian / Dolby Digital Audio / 640 kbps, 6 ch - Авторский Е. Рудой
Language : Russian
Service kind : Complete Main
Default : No
Forced : No

Audio #7
ID : 8
Format : AC-3
Format/Info : Audio Coding 3
Codec ID : A_AC3
Duration : 2 h 18 min
Bit rate mode : Constant
Bit rate : 640 kb/s
Channel(s) : 6 channels
Channel positions : Front: L C R, Side: L R, LFE
Sampling rate : 48.0 kHz
Frame rate : 31.250 FPS (1536 SPF)
Bit depth : 16 bits
Compression mode : Lossy
Stream size : 633 MiB (5%)
Title : Russian / Dolby Digital Audio / 640 kbps, 6 ch - Авторский Ю. Живов
Language : Russian
Service kind : Complete Main
Default : No
Forced : No

Audio #8
ID : 9
Format : AC-3
Format/Info : Audio Coding 3
Codec ID : A_AC3
Duration : 2 h 18 min
Bit rate mode : Constant
Bit rate : 640 kb/s
Channel(s) : 6 channels
Channel positions : Front: L C R, Side: L R, LFE
Sampling rate : 48.0 kHz
Frame rate : 31.250 FPS (1536 SPF)
Bit depth : 16 bits
Compression mode : Lossy
Stream size : 633 MiB (5%)
Title : English / Dolby Digital Audio / 640 kbps, 6 ch - Оригинал
Language : English
Service kind : Complete Main
Default : No
Forced : No

Text #1
ID : 10
Format : UTF-8
Codec ID : S_TEXT/UTF8
Codec ID/Info : UTF-8 Plain Text
Duration : 2 h 17 min
Bit rate : 67 b/s
Count of elements : 1186
Stream size : 67.8 KiB (0%)
Title : Русские
Language : Russian
Default : No
Forced : No

Text #2
ID : 11
Format : UTF-8
Codec ID : S_TEXT/UTF8
Codec ID/Info : UTF-8 Plain Text
Duration : 2 h 16 min
Bit rate : 44 b/s
Count of elements : 1193
Stream size : 44.9 KiB (0%)
Title : Английские
Language : English
Default : No
Forced : No

Menu
00:00:00.000 : en:00:00:00.000
00:03:50.230 : en:00:03:50.230
00:08:55.368 : en:00:08:55.368
00:12:16.903 : en:00:12:16.903
00:16:24.317 : en:00:16:24.317
00:19:43.182 : en:00:19:43.182
00:23:29.408 : en:00:23:29.408
00:27:26.812 : en:00:27:26.812
00:32:01.253 : en:00:32:01.253
00:33:43.188 : en:00:33:43.188
00:37:57.442 : en:00:37:57.442
00:40:55.620 : en:00:40:55.620
00:43:44.956 : en:00:43:44.956
00:50:42.706 : en:00:50:42.706
00:55:08.472 : en:00:55:08.472
01:00:03.099 : en:01:00:03.099
01:02:49.766 : en:01:02:49.766
01:08:52.295 : en:01:08:52.295
01:13:06.882 : en:01:13:06.882
01:16:21.410 : en:01:16:21.410
01:20:31.827 : en:01:20:31.827
01:22:47.129 : en:01:22:47.129
01:26:12.501 : en:01:26:12.501
01:29:52.887 : en:01:29:52.887
01:32:50.899 : en:01:32:50.899
01:37:10.825 : en:01:37:10.825
01:40:51.379 : en:01:40:51.379
01:44:57.791 : en:01:44:57.791
01:48:12.152 : en:01:48:12.152
01:52:25.572 : en:01:52:25.572
01:55:42.936 : en:01:55:42.936
01:57:37.550 : en:01:57:37.550
02:01:51.471 : en:02:01:51.471
02:04:18.451 : en:02:04:18.451
02:07:04.116 : en:02:07:04.116
02:16:29.681 : en:02:16:29.681
Матрица: Революция / The Matrix: Revolutions
Год выпуска: 2003
Страна: США
Жанр: фэнтези, боевик
Продолжительность: 02:09:15
Перевод: Дублированный, профессиональный многоголосый, профессиональный двухголосый, авторский
Субтитры: Русские (полные), Английские (полные)

Режиссер: Лилли Вачовски, Лана Вачовски

rating

В ролях: Лоуренс Фишборн, Киану Ривз, Хьюго Уивинг, Брюс Спенс, Моника Белуччи, Джада Пинкетт Смит, Натаниэль Лис, Ламбер Уилсон, Харольд Перрино-мл., Джина Торрес, Энтони Зерб, Кэрри-Энн Мосс, Хэрри Дж. Ленникс, Роберт Маммон, Клэйтон Уотсон, Эсси Дэвис, Энтони Вонг, Дэвид Робертс, Иэн Блисс, Мэри Элис, Робин Невин, Руперт Рид, Хельмут Бакайтис

Описание: Армия машин продолжает бурить тоннели к Зиону. Уже через несколько часов они наводнят население последнего города Земли и положат конец существованию человеческого вида. Тем временем Нео застрял меж Матрицей и реальным миром, на вокзале, принадлежащем коварному Меровингину. Тринити и Морфеус предпринимают успешную попытку его освобождения и теперь всем необходимо быстро сделать правильный выбор следующего действия. В поисках ответа на свои вопросы Нео посещает прорицательницу Пифию, но так и не может найти выход. Катастрофа становится неизбежной. Несмотря на мощные оборонные системы Зиона и геройский настрой всего населения, гибель последнего оплота человечества становится неизбежной и лишь только Избранный может найти способ остановить безжалостное истребление человеческой расы.

Качество: BDRip 720p / 60 FPS
Формат: MKV
Видео кодек: H.264
Аудио кодек: AC3
Видео: AVC, 1280x528 (2.40:1), 7651 kbps, 60.000 fps, 0.189 bpp
Аудио#1: AC3 / 5.1 / 48 kHz / 640 kbps / 16 bit | Дубляж
Аудио#2: AC3 / 5.1 / 48 kHz / 640 kbps / 16 bit | Профессиональный двухголосый (П. Гланц и И. Королёва)
Аудио#3: AC3 / 5.1 / 48 kHz / 640 kbps / 16 bit | Многоголосый
Аудио#4: AC3 / 5.1 / 48 kHz / 640 kbps / 16 bit | Авторский (А. Гаврилов)
Аудио#1: AC3 / 5.1 / 48 kHz / 640 kbps / 16 bit | Авторский (Ю. Живов)
Аудио#1: AC3 / 5.1 / 48 kHz / 640 kbps / 16 bit
General
Unique ID : 110396998905496277045635235911618284384 (0x530DB047D828561306BB03A614484B60)
Complete name : A:\Матрица (Трилогия) BDRip 720p 60fps\03. Матрица. Революция.mkv
Format : Matroska
Format version : Version 4 / Version 2
File size : 10.4 GiB
Duration : 2 h 9 min
Overall bit rate : 11.5 Mb/s
Movie name : Матрица Революция by Tiberiumsun69
Encoded date : UTC 2018-04-09 14:05:31
Writing application : mkvmerge v20.0.0 ('I Am The Sun') 64-bit
Writing library : libebml v1.3.5 + libmatroska v1.4.8

Video
ID : 1
Format : AVC
Format/Info : Advanced Video Codec
Format profile : High@L4.1
Format settings : CABAC / 12 Ref Frames
Format settings, CABAC : Yes
Format settings, ReFrames : 12 frames
Codec ID : V_MPEG4/ISO/AVC
Duration : 2 h 9 min
Bit rate : 7 651 kb/s
Width : 1 280 pixels
Height : 528 pixels
Display aspect ratio : 2.40:1
Frame rate mode : Constant
Frame rate : 60.000 FPS
Color space : YUV
Chroma subsampling : 4:2:0
Bit depth : 8 bits
Scan type : Progressive
Bits/(Pixel*Frame) : 0.189
Stream size : 6.91 GiB (67%)
Writing library : x264 core 146 r2538 121396c
Encoding settings : cabac=1 / ref=12 / deblock=1:-2:-2 / analyse=0x3:0x133 / me=umh / subme=10 / psy=1 / psy_rd=1.00:0.00 / mixed_ref=1 / me_range=32 / chroma_me=1 / trellis=2 / 8x8dct=1 / cqm=0 / deadzone=21,11 / fast_pskip=0 / chroma_qp_offset=-2 / threads=12 / lookahead_threads=2 / sliced_threads=0 / nr=0 / decimate=1 / interlaced=0 / bluray_compat=0 / constrained_intra=0 / bframes=8 / b_pyramid=2 / b_adapt=2 / b_bias=0 / direct=3 / weightb=1 / open_gop=0 / weightp=2 / keyint=250 / keyint_min=25 / scenecut=40 / intra_refresh=0 / rc_lookahead=60 / rc=crf / mbtree=0 / crf=17.0 / qcomp=0.80 / qpmin=0 / qpmax=69 / qpstep=4 / vbv_maxrate=62500 / vbv_bufsize=78125 / crf_max=0.0 / nal_hrd=none / filler=0 / ip_ratio=1.40 / pb_ratio=1.30 / aq=1:1.00
Language : English
Default : Yes
Forced : No

Audio #1
ID : 2
Format : AC-3
Format/Info : Audio Coding 3
Codec ID : A_AC3
Duration : 2 h 9 min
Bit rate mode : Constant
Bit rate : 640 kb/s
Channel(s) : 6 channels
Channel positions : Front: L C R, Side: L R, LFE
Sampling rate : 48.0 kHz
Frame rate : 31.250 FPS (1536 SPF)
Bit depth : 16 bits
Compression mode : Lossy
Delay relative to video : 200 ms
Stream size : 592 MiB (6%)
Title : Russian / Dolby Digital Audio / 640 kbps, 6 ch - Дубляж
Language : Russian
Service kind : Complete Main
Default : No
Forced : No

Audio #2
ID : 3
Format : AC-3
Format/Info : Audio Coding 3
Codec ID : A_AC3
Duration : 2 h 9 min
Bit rate mode : Constant
Bit rate : 640 kb/s
Channel(s) : 6 channels
Channel positions : Front: L C R, Side: L R, LFE
Sampling rate : 48.0 kHz
Frame rate : 31.250 FPS (1536 SPF)
Bit depth : 16 bits
Compression mode : Lossy
Delay relative to video : 200 ms
Stream size : 592 MiB (6%)
Title : Russian / Dolby Digital Audio / 640 kbps, 6 ch - Профессиональный двухголосый П. Гланц и И. Королёва
Language : Russian
Service kind : Complete Main
Default : No
Forced : No

Audio #3
ID : 4
Format : AC-3
Format/Info : Audio Coding 3
Codec ID : A_AC3
Duration : 2 h 9 min
Bit rate mode : Constant
Bit rate : 640 kb/s
Channel(s) : 6 channels
Channel positions : Front: L C R, Side: L R, LFE
Sampling rate : 48.0 kHz
Frame rate : 31.250 FPS (1536 SPF)
Bit depth : 16 bits
Compression mode : Lossy
Delay relative to video : 200 ms
Stream size : 592 MiB (6%)
Title : Russian / Dolby Digital Audio / 640 kbps, 6 ch - Многоголосый
Language : Russian
Service kind : Complete Main
Default : No
Forced : No

Audio #4
ID : 5
Format : AC-3
Format/Info : Audio Coding 3
Codec ID : A_AC3
Duration : 2 h 9 min
Bit rate mode : Constant
Bit rate : 640 kb/s
Channel(s) : 6 channels
Channel positions : Front: L C R, Side: L R, LFE
Sampling rate : 48.0 kHz
Frame rate : 31.250 FPS (1536 SPF)
Bit depth : 16 bits
Compression mode : Lossy
Delay relative to video : 200 ms
Stream size : 592 MiB (6%)
Title : Russian / Dolby Digital Audio / 640 kbps, 6 ch - Авторский Гаврилов
Language : Russian
Service kind : Complete Main
Default : No
Forced : No

Audio #5
ID : 6
Format : AC-3
Format/Info : Audio Coding 3
Codec ID : A_AC3
Duration : 2 h 9 min
Bit rate mode : Constant
Bit rate : 640 kb/s
Channel(s) : 6 channels
Channel positions : Front: L C R, Side: L R, LFE
Sampling rate : 48.0 kHz
Frame rate : 31.250 FPS (1536 SPF)
Bit depth : 16 bits
Compression mode : Lossy
Delay relative to video : 200 ms
Stream size : 592 MiB (6%)
Title : Russian / Dolby Digital Audio / 640 kbps, 6 ch - Живов
Language : Russian
Service kind : Complete Main
Default : No
Forced : No

Audio #6
ID : 7
Format : AC-3
Format/Info : Audio Coding 3
Codec ID : A_AC3
Duration : 2 h 9 min
Bit rate mode : Constant
Bit rate : 640 kb/s
Channel(s) : 6 channels
Channel positions : Front: L C R, Side: L R, LFE
Sampling rate : 48.0 kHz
Frame rate : 31.250 FPS (1536 SPF)
Bit depth : 16 bits
Compression mode : Lossy
Delay relative to video : 203 ms
Stream size : 592 MiB (6%)
Title : English / Dolby Digital Audio / 640 kbps, 6 ch - Оригинал
Language : English
Service kind : Complete Main
Default : No
Forced : No

Text #1
ID : 8
Format : UTF-8
Codec ID : S_TEXT/UTF8
Codec ID/Info : UTF-8 Plain Text
Duration : 2 h 8 min
Bit rate : 60 b/s
Count of elements : 1085
Stream size : 56.9 KiB (0%)
Title : Русские
Language : Russian
Default : No
Forced : No

Text #2
ID : 9
Format : UTF-8
Codec ID : S_TEXT/UTF8
Codec ID/Info : UTF-8 Plain Text
Duration : 1 h 58 min
Bit rate : 42 b/s
Count of elements : 1072
Stream size : 36.6 KiB (0%)
Title : Английские
Language : English
Default : No
Forced : No

Menu
00:00:00.000 : :Chapter 01
00:03:55.401 : :Chapter 04
00:07:33.119 : :Chapter 09
00:10:19.952 : :Chapter 12
00:14:44.383 : :Chapter 17
00:17:58.744 : :Chapter 21
00:23:33.245 : :Chapter 28
00:30:06.304 : :Chapter 37
00:35:35.633 : :Chapter 42
00:39:34.205 : :Chapter 47
00:42:58.909 : :Chapter 52
00:46:43.300 : :Chapter 56
00:49:02.606 : :Chapter 60
00:51:53.610 : :Chapter 64
00:58:00.643 : :Chapter 69
01:00:19.115 : :Chapter 72
01:02:29.746 : :Chapter 76
01:08:00.910 : :Chapter 82
01:10:29.225 : :Chapter 87
01:14:33.802 : :Chapter 92
01:18:23.365 : :Chapter 97
01:23:08.984 : :Chapter 102
01:25:55.817 : :Chapter 107
01:29:13.348 : :Chapter 111
01:31:51.672 : :Chapter 117
01:36:51.472 : :Chapter 122
01:41:55.275 : :Chapter 127
01:44:53.120 : :Chapter 132
01:48:06.646 : :Chapter 138
01:51:30.850 : :Chapter 144
01:55:05.899 : :Chapter 148
01:57:31.210 : :Chapter 152
02:00:12.371 : :Chapter 155
02:09:15.664 : :Chapter 159
Просьба к переливающим на другие сайты, в оформлении указывайте пожалуйста авторство группы Ссылка на биткоин кошелек - 1DWGvzWwL9gYLWXkozc7RAoU6KmFnCsWsi Авторская группа в ВК
Раздача обновлена 09.04.2018.pb.wtf



Скачать Матрица: Трилогия через торрент http://pic.kartinco.top/new/img/2014-08/17/93d1gpjlpxobmij529bcfjhtu.png Скачать фильм Матрица: Трилогия через торрент бесплантно в хорошем качестве Описание: Что есть реальность? Есть ли у человека выбор? Действительно ли мы живём или только представляем, что живём, а на самом деле жив ... 10 10 34
Info! Золотая раздача, скачанное не засчитывается.
Торрент: Зарегистрирован [2018-04-09 14:57] · скачан: 227 раз
Статус: √ проверено
Размер: 36.11 GB
Как cкачать? Как скачать Матрица: Трилогия через торрент | qTorrent

% Раздел Тема Автор DL S | L
Ultra HD (UHD: 2K, 4K, 8K) — видео сверхвысокой чёткости [ 100.57 GB ] Матрица: Трилогия / The Matrix: Trilogy [1999-2003 UHD BDRip 2160p] bober100 Скачать
2 | 0
Сборники (HD Video) [ 13.58 GB ] Матрица: Трилогия / The Matrix: Trilogy [1999-2003 BDRip 720p от Leonardo and Scarabey] DUB Ворон Скачать
2 | 0
Сборники (HD Video) [ 23.29 GB ] Матрица: Трилогия / The Matrix: Trilogy [1999-2003 BDRip 1080p лицензия] Зайчина Скачать
1 | 1
Сборники и Сиквелы (48-60 fps) [ 11.94 GB ] Матрица : Трилогия / The Matrix : Trilogy [1999-2003 Австралия BDRip-AVC 60fps ] от R.G. HD-Films Tiberiumsun69 Скачать
2 | 0
Сборники и Сиквелы (48-60 fps) [ 38.81 GB ] Матрица: Трилогия / The Matrix: Trilogy [1999-2003 Австралия BDRip 1080p / 60 FPS ] Tiberiumsun69 Скачать
3 | 1
Сборники (HD Video) [ 43.24 GB ] Матрица: Трилогия / The Matrix Trilogy [1999 2003 г BDRip 1080p DUB] akcent Скачать
1 | 0
Сборники на DVD и Сиквелы [DVDrip, WEB-DLRip, HDrip, BDRip] [ 7.81 GB ] Матрица: Трилогия / The Matrix: Trilogy [1999-2003 BDRip] nikolay27rus Скачать
1 | 0


Последний раз редактировалось: Tiberiumsun69 (2018-04-09 15:01), всего редактировалось 5 раз(а)

28-11-2019 20:33  

Отключить всю рекламу на сайте

18-08-2014 18:40 Матрица: Трилогия Скачать торрент  

pb.wtf





Последний раз редактировалось: Tiberiumsun69 (2014-08-18 18:41), всего редактировалось 1 раз

18-08-2014 18:40 Матрица: Трилогия Скачать торрент  

P.S Матрица 1080p 60fps случайно удалил.Позор мне.
Буду делать по новой.pb.wtf



18-08-2014 18:42 Матрица: Трилогия Скачать торрент  

фильм на все века. и по сей день актуален.спс зачет!!!pb.wtf



18-08-2014 18:57 Матрица: Трилогия Скачать торрент  

Tiberiumsun69 писал(а):

P.S Матрица 1080p 60fps случайно удалил.Позор мне.
Буду делать по новой.

Сочувствую. Буду ждать.pb.wtf



18-08-2014 19:03 Матрица: Трилогия Скачать торрент  

Мясоруб писал(а):

Tiberiumsun69 писал(а):

P.S Матрица 1080p 60fps случайно удалил.Позор мне.
Буду делать по новой.

Сочувствую. Буду ждать.

Фуу все нормально.Ложная тревога.Вот вот выложу.Резервные файлы осталлись. pb.wtf



18-08-2014 19:05 Матрица: Трилогия Скачать торрент  

только закончил смотреть Константина) теперь на очереди этот шедевр!)pb.wtf



18-08-2014 22:03 Матрица: Трилогия Скачать торрент  

Чем лучше с 60 фпс? Разве можно будет заметить разницу?pb.wtf



20-08-2014 08:02 Матрица: Трилогия Скачать торрент  

13-01-2015 12:01 Матрица: Трилогия Скачать торрент  

парни кто на раздаче, дайте скорости пжлpb.wtf



09-04-2018 14:59 Матрица: Трилогия Скачать торрент  

Раздача обновлена 09.04.2018

Полностью обновлены и дополнены аудио и видеодорожки. Всем приятного просмотра.pb.wtf



09-04-2018 16:28 Матрица: Трилогия Скачать торрент  

Tiberiumsun69, Зачем сжал картинку на 4 px ? ))pb.wtf



09-04-2018 16:44 Матрица: Трилогия Скачать торрент  

еnvy, Ремуксы брал от ZEGZ509. Обрезал в ручную картинку и подгонял соотношение как вы раньше рекомендовали. Меня кстати тоже немного удивило почему 528 а не 532 на выходе получилось.pb.wtf



09-04-2018 17:00 Матрица: Трилогия Скачать торрент  

Tiberiumsun69 писал(а):

еnvy, Ремуксы брал от ZEGZ509. Обрезал в ручную картинку и подгонял соотношение как вы раньше рекомендовали. Меня кстати тоже немного удивило почему 528 а не 532 на выходе получилось.

А какой кроп и мод был применен?pb.wtf



09-04-2018 17:09 Матрица: Трилогия Скачать торрент  

Enigma2010, Lanczos4resize делал через xvid4psp5 5.10.346.0pb.wtf



09-04-2018 17:10 Матрица: Трилогия Скачать торрент  

Tiberiumsun69 писал(а):

Enigma2010, Lanczos4resize делал через xvid4psp5 5.10.346.0

Это ресайзер)pb.wtf



Друзья, наш проект PiratBit построен на чистом энтузиазме. Денег от рекламы он приносит мало, потому как нет хороших, богатых рекламодателей, которые бы хотели работать с сайтами, которые нарушают законодательство той или иной страны, да и вешать какую-то шлако-рекламу с вирусами тоже мы не хотим, поскольку мы уважаем своих пользователей и Ваша безопасность на нашем сайте для нас превыше всего. В связи с этим, мы вынуждены просить помощи у каждого из Вас. Каких-то 3, 5, 10 рублей для каждого из Вас по большому счету копейки, а для нас это будет хорошая поддержка.
Нашими приоритетами всегда были качество и быстрота везде и во всем!!!
Технически так сложилось, чтобы все "летало" мы используем 4 мощных абузоустойчивых сервера, каждый из которых стоит 100$ в месяц.
Ребята, мы будем рады любой помощи, надеюсь на понимание Devi...

Важно, если ваш платеж составляет больше 100 руб.(единоразово) то мы для вас отключим рекламу на месяц, 200=2мес., 300=3мес., 400=4мес., если больше чем 499 руб.(единоразово) то на 6 месяцев, УКАЗЫВАЙТЕ СВОЙ НИК В ПРИМЕЧАНИИ К ПЛАТЕЖУ!


Яндекс Деньги,QIWI,WebMoney,Steam,Payeer,СберБанк,Мобильный,BitCoin,PayPal

09-04-2018 19:21 Матрица: Трилогия Скачать торрент  

Enigma2010,

Обрезал в ручную.Судя по всему лучше это делать не через ресайзер а через скрипт. Ресайзер обрезает по 2 пикселя а скрипт может с точностью до 1 пикселя это делать. В новых релизах буду корректировать этот момент. Ибо сталкиваюсь с этим первый раз.pb.wtf



09-04-2018 19:57 Матрица: Трилогия Скачать торрент  

Раздачу буду переделывать.pb.wtf



    Дорогой пользователь! Огромная просьба, поблагодарите релизера, оцените раздачу и оставьте свои комментарий, если Вы скачали Матрица: Трилогия через торрент бесплатно! Внесите свою лепту в развитие PiratBit!
    Комментировать посты могут только пользователи прошедшие не сложную регистрацию
    Показать сообщения:    

    Матрица: Трилогия через торрент
    Скачать бесплатно Матрица: Трилогия
    Матрица: Трилогия скачать торрент
    Матрица: Трилогия смотреть онлайн
    Cкачать фильм Матрица: Трилогия бесплатно
    Матрица: Трилогия скачать торрент в хорошем качестве
    Матрица: Трилогия смотреть онлайн бесплатно в хорошем качестве


    Вы не можете начинать темы
    Вы не можете отвечать на сообщения
    Вы не можете редактировать свои сообщения
    Вы не можете удалять свои сообщения
    Вы не можете голосовать в опросах
    Вы не можете прикреплять файлы к сообщениям
    Вы можете скачивать файлы