Ссылка на приватное зеркало нашего сайта всего за 1$. Внимание количество ограничено!!!

2 сезон

iTunes

1 сезон

1

2 сезон

2 сезон

iTunes

1 сезон

RePack

30

Новинка

ВАЖНО

ИГРА 18+

pack

RePack

MK11
pack

Забери бонус

RePack

jed

!!Акция!!

Alien_Rage

RePack

fifa19

RePack

Assassins Creed: Odyssey

RePack

NEED FOR SPEED™ PAYBACK

4 сезон

9 сезон

Бесстыжие 9 сезон

Все сериалы

все сериалы на PB.wtf

RePack

FAR CRY 5
  

WWE PPV Summerslam 2014 (Русская версия от 545TV) [17.08.2014, Рестлинг, WEB-DL 720p] pb.wtf

WWE PPV Summerslam 2014 через торрент pb.wtf

Размер: 6.59 GB | Добавлен: 6 лет 3 мес. назад | Торрент скачан:27 раз
Скачать  

19-08-2014 08:47 WWE PPV Summerslam 2014 Скачать торрент  

WWE PPV Summerslam 2014 (Русская версия от 545TV)

Год выпуска: 2014

Вид спорта: Рестлинг

Участники: WWE Superstars

Продолжительность: 00:28:26 (Kick-Off) + 02:51:55

Комментарий: Любительский многоголосый

Язык комментариев: Русский

Комментатор: *Kick-Off - Александр Барыбин и Игорь Вольнов

Комментатор: *Основная часть - Сергей Перышкин и Александр Барыбин / Валентин Нарчук и Константин Иванов

Описание: » WWE SummerSlam + Kick-off Русская версия от
» Приятного просмотра!
» + аудиодорожка
» Промоушен: World Wrestling Entertainment
» Дата: 17 августа, 2013 года
» Город: Los Angeles
» Штат: California
» Место проведения: Staples Center
» Максимальное количество мест: 21,000 тыс. человек


Качество: WEB-DL 720p

Формат: MP4

Видео кодек: H.264

Аудио кодек: AAC

Видео: MPEG4 Video (H264) 1280x720 29.97fps 4373kbps

Аудио: AAC 48000Hz stereo 165kbps
Kick-Off

General
Complete name : G:\Торрент\WWE PPV - 2014.08.17 - Summerslam 2014 720p (545TV)\WWE PPV - 2014.08.17 - Summerslam 2014 Kick-Off 720p (545TV).mp4
Format : MPEG-4
Format profile : Base Media
Codec ID : isom
File size : 924 MiB
Duration : 28mn 26s
Overall bit rate mode : Variable
Overall bit rate : 4 542 Kbps
Encoded date : UTC 2014-08-17 14:11:47
Tagged date : UTC 2014-08-17 14:11:47
Writing application : Yamb 2.1.0.0 [http://yamb.unite-video.com]

Video
ID : 1
Format : AVC
Format/Info : Advanced Video Codec
Format profile : High@L4.0
Format settings, CABAC : Yes
Format settings, ReFrames : 4 frames
Codec ID : avc1
Codec ID/Info : Advanced Video Coding
Duration : 28mn 26s
Source duration : 28mn 26s
Bit rate mode : Constant
Bit rate : 4 372 Kbps
Maximum bit rate : 9 028 Kbps
Width : 1 280 pixels
Height : 720 pixels
Display aspect ratio : 16:9
Frame rate mode : Constant
Frame rate : 29.970 fps
Color space : YUV
Chroma subsampling : 4:2:0
Bit depth : 8 bits
Scan type : Progressive
Bits/(Pixel*Frame) : 0.158
Stream size : 890 MiB (96%)
Source stream size : 890 MiB (96%)
Tagged date : UTC 2014-08-17 14:15:52

Audio
ID : 2
Format : AAC
Format/Info : Advanced Audio Codec
Format profile : LC
Codec ID : 40
Duration : 28mn 26s
Duration_FirstFrame : 64ms
Bit rate mode : Variable
Bit rate : 165 Kbps
Maximum bit rate : 226 Kbps
Channel count : 2 channels
Channel positions : Front: L R
Sampling rate : 48.0 KHz
Compression mode : Lossy
Delay relative to video : 67ms
Stream size : 33.7 MiB (4%)
Encoded date : UTC 2014-08-17 14:15:51
Tagged date : UTC 2014-08-17 14:15:52

Text
ID : 1-CC1
Format : EIA-608
Muxing mode : SCTE 128 / DTVCC Transport
Muxing mode, more info : Muxed in Video #1
Duration : 28mn 26s
Bit rate mode : Constant
Stream size : 0.00 Byte (0%)
Encoded stream size : 0.00 Byte (0%)

Summerslam 2014
General
Complete name : G:\Торрент\WWE PPV - 2014.08.17 - Summerslam 2014 720p (545TV)\WWE PPV - 2014.08.17 - Summerslam 2014 720p (545TV).mp4
Format : MPEG-4
Format profile : Base Media
Codec ID : isom
File size : 5.46 GiB
Duration : 2h 51mn
Overall bit rate mode : Variable
Overall bit rate : 4 543 Kbps
Encoded date : UTC 2014-08-17 16:57:06
Tagged date : UTC 2014-08-17 16:57:06
Writing application : Yamb 2.1.0.0 [http://yamb.unite-video.com]

Video
ID : 1
Format : AVC
Format/Info : Advanced Video Codec
Format profile : High@L4.0
Format settings, CABAC : Yes
Format settings, ReFrames : 4 frames
Codec ID : avc1
Codec ID/Info : Advanced Video Coding
Duration : 2h 51mn
Source duration : 2h 51mn
Bit rate mode : Constant
Bit rate : 4 372 Kbps
Maximum bit rate : 9 920 Kbps
Width : 1 280 pixels
Height : 720 pixels
Display aspect ratio : 16:9
Frame rate mode : Constant
Frame rate : 29.970 fps
Color space : YUV
Chroma subsampling : 4:2:0
Bit depth : 8 bits
Scan type : Progressive
Bits/(Pixel*Frame) : 0.158
Stream size : 5.25 GiB (96%)
Source stream size : 5.25 GiB (96%)
Tagged date : UTC 2014-08-17 17:10:43

Audio
ID : 2
Format : AAC
Format/Info : Advanced Audio Codec
Format profile : LC
Codec ID : 40
Duration : 2h 51mn
Duration_FirstFrame : 64ms
Bit rate mode : Variable
Bit rate : 165 Kbps
Maximum bit rate : 232 Kbps
Channel count : 2 channels
Channel positions : Front: L R
Sampling rate : 48.0 KHz
Compression mode : Lossy
Delay relative to video : 67ms
Stream size : 203 MiB (4%)
Encoded date : UTC 2014-08-17 17:09:51
Tagged date : UTC 2014-08-17 17:10:43


Singles match:
Rob Van Dam vs. Cesaro


WWE World Heavyweight Championship Match:
John Cena © vs. Brock Lesnar


Singles Match:
Brie Bella vs. Stephanie McMahon


Singles Match:
Roman Reigns vs. Randy Orton


Lumberjack Match:
Dean Ambrose vs. Seth Rollins


Divas Championship Match:
AJ Lee © vs. Paige


Flag Match:
Jack Swagger vs. Rusev


Singles Match, Luke Harper and Erick Rowan are banned from ringside:
Chris Jericho vs. Bray Wyatt


Intercontinental Championship Match:
The Miz © vs. Dolph Ziggler


скриншот   скриншот   скриншот   скриншот   скриншот   скриншот   скриншот   скриншот  
pb.wtf



Скачать WWE PPV Summerslam 2014 через торрент http://pic.kartinco.top/new/img/2014-08/19/mwtgo4s1sgl1asndj17airlpa.jpg Скачать фильм WWE PPV Summerslam 2014 через торрент бесплантно в хорошем качестве Описание: » WWE SummerSlam + Kick-off Русская от » Приятного просмотра! » + аудиодорожка » Промоушен: World Wrestling ... 10 10 2
Info! Золотая раздача, скачанное не засчитывается.
Торрент: Зарегистрирован [2014-08-19 08:47] · скачан: 27 раз
Статус: √ проверено
Размер: 6.59 GB
Как cкачать? Как скачать WWE PPV Summerslam 2014 через торрент | qTorrent

% Раздел Тема Автор DL S | L
Рестлинг [ 2.86 GB ] WWE PPV Summerslam 2014 [17.08.2014 Рестлинг WEB-DL] ndre157324 Скачать
1 | 0

28-11-2019 20:33  

Отключить всю рекламу на сайте

    Дорогой пользователь! Огромная просьба, поблагодарите релизера, оцените раздачу и оставьте свои комментарий, если Вы скачали WWE PPV Summerslam 2014 через торрент бесплатно! Внесите свою лепту в развитие PiratBit!
    Комментировать посты могут только пользователи прошедшие не сложную регистрацию
    Показать сообщения:    

    WWE PPV Summerslam 2014 через торрент
    Скачать бесплатно WWE PPV Summerslam 2014
    WWE PPV Summerslam 2014 скачать торрент
    WWE PPV Summerslam 2014 смотреть онлайн
    Cкачать фильм WWE PPV Summerslam 2014 бесплатно
    WWE PPV Summerslam 2014 скачать торрент в хорошем качестве
    WWE PPV Summerslam 2014 смотреть онлайн бесплатно в хорошем качестве


    Вы не можете начинать темы
    Вы не можете отвечать на сообщения
    Вы не можете редактировать свои сообщения
    Вы не можете удалять свои сообщения
    Вы не можете голосовать в опросах
    Вы не можете прикреплять файлы к сообщениям
    Вы можете скачивать файлы