1 сезон

3 сезон

iTunes

1

Line

MVO

iTunes

13

1 сезон

RePack

30

Deluxe

pack

Лицензия

ВАЖНО

ИГРА 18+

pack

RePack

MK11

RePack

jed

RePack

fifa19

RePack

RDR2

RePack

NEED FOR SPEED™ PAYBACK

4 сезон

9 сезон

Бесстыжие 9 сезон

Все сериалы

все сериалы на PB.wtf

RePack

FAR CRY 5

Anonymous, доброй ночи, мы катастрофически не успеваем собрать деньги на оплату серверов, помогите нам пожалуйста 5,10,15р., для нас важна любая помощь . В качестве благодарности мы отключим Вам всю рекламу на сайте (укажите свой ник в строку Ваше имя)!

×
  
Magnet ссылка

Побеждая время / Hours (Эрик Хайссерер / Eric Heisserer) [2013, триллер, драма, DVD5] R5 pb.wtf

Побеждая время через торрент pb.wtf

Размер: 4.26 GB | Добавлен: 6 лет 11 мес. назад | Торрент скачан:51 раз
Скачать  

19-08-2014 09:30 Побеждая время Скачать торрент  


Побеждая время / Hours
«Every second counts»
Страна: США
Студия:Hours Capital, Palm-Star Entertainment, Safran Company, The
Жанр: триллер, драма
Год выпуска: 2013
Мировая премьера: 10 марта 2013
Дата выхода DVD: 26 августа 2014
Продолжительность: 01:32:59
Перевод: Профессиональный (многоголосый закадровый) [Лицензия]
Cубтитры: нет
Оригинальная аудиодорожка: нет
Режиссер: Эрик Хайссерер / Eric Heisserer
В ролях: Пол Уокер, Дженезис Родригез, Нэнси Нейв, Шэйн Якобсен, Наталия Ярожик, Тиджей Хассан, Лена Кларк, Кеша Баллард, Йоханс Майлс, Джудд Лорманд
Описание: Новый Орлеан. Август 2005-го. Смертоносная «Катрина» сметает все на своем пути. Отец изо всех сил пытается спасти свою дочь. Он понимает, что справиться со стихией, остановить беспощадный ураган не в его силах. На спасение дочери остаются считаные часы…
Бонусы: Скоро на DVD

Релиз группы:
Качество: DVD5 R5
Формат: DVD-Video
Видео кодек: MPEG2
Аудио кодек: AC3
Видео: PAL 16:9 (720x576(0.551)) MPEG Video, 25,000 кадр/сек, 5715 Кбит/сек
Аудио: Russian (Dolby AC3, 6 ch) 384 Кбит/сек, 48,0 КГц



Title: Pobezhdaja.vremja.2013.DVD5
Size: 4.26 Gb ( 4 468 396,00 KBytes ) - DVD-5
Enabled regions: 1, 2, 3, 4, 5, 6, 7, 8

VTS_01 :
Play Length: 01:32:59
Video: PAL 16:9 (720x576) VBR, Auto Letterboxed
Audio:
Russian (Dolby AC3, 6 ch)

VTS_02 :
Play Length: 00:06:46
Video: PAL 16:9 (720x576) VBR, Auto Letterboxed
Audio:
Not specified (Dolby AC3, 2 ch)

* Menus Information *

VIDEO_TS Menu
Video:
PAL 16:9 (720x576) VBR
Auto Pan&Scan
Audio:
Not specified (Dolby AC3, 2 ch)
Russian Language Unit :
Title Menu

VTS_01 Menu
Video:
PAL 16:9 (720x576) VBR
Auto Pan&Scan
Audio:
Not specified (Dolby AC3, 6 ch)
Russian Language Unit :
Root Menu
Chapter (PTT) Menu

VTS_02 Menu
Video:
NTSC 4:3 (720x480) VBR
Auto Pan&Scan, Auto Letterboxed
Russian Language Unit :
Root Menu
Общее
Полное имя : D:\Новинки 2014\Pobezhdaja.vremja.2013.DVD5\VIDEO_TS\VTS_01_2.VOB
Формат : MPEG-PS
Размер файла : 1024 Мбайт
Продолжительность : 23 м.
Режим общего битрейта : Переменный
Общий поток : 6223 Кбит/сек

Видео
Идентификатор : 224 (0xE0)
Формат : MPEG Video
Версия формата : Version 2
Профиль формата : Main@Main
Параметр BVOP формата : Да
Параметр матрицы формата : Выборочная
Параметр GOP формата : Variable
Продолжительность : 23 м.
Вид битрейта : Переменный
Битрейт : 5715 Кбит/сек
Максимальный битрейт : 9000 Кбит/сек
Ширина : 720 пикселей
Высота : 576 пикселей
Соотношение сторон : 16:9
Частота кадров : 25,000 кадров/сек
Стандарт вещания : PAL
Цветовое пространство : YUV
Субдискретизация насыщенности : 4:2:0
Битовая глубина : 8 бит
Тип развёртки : Прогрессивная
Порядок развёртки : Верхнее поле первое
Метод сжатия : С потерями
Бит/(Пиксели*Кадры) : 0.551
Временной код первого кадра : 01:23:36:15
Оригинал временного кода : Group of pictures header
Размер потока : 940 Мбайт (92%)

Аудио
Идентификатор : 189 (0xBD)-128 (0x80)
Формат : AC-3
Формат/Информация : Audio Coding 3
Расширение режима : CM (complete main)
Параметр Endianness формата : Big
Режим смешивания : DVD-Video
Продолжительность : 23 м.
Вид битрейта : Постоянный
Битрейт : 384 Кбит/сек
Каналы : 6 каналов
Расположение каналов : Front: L C R, Side: L R, LFE
Частота : 48,0 КГц
Битовая глубина : 16 бит
Метод сжатия : С потерями
Задержка видео : -360 мс.
Размер потока : 63,2 Мбайт (6%)










pb.wtf



Скачать Побеждая время через торрент http://i67.fastpic.ru/big/2014/0819/85/83ed3fa5428d2a7660cd1e492581a485.jpg Скачать фильм Побеждая время через торрент бесплантно в хорошем качестве Описание: Новый Орлеан. Август 2005-го. Смертоносная «Катрина» сметает все на своем пути. Отец изо всех сил пытается спасти свою дочь. Он ... 10 10 1
Info! Серебряная раздача, засчитывается только 50% скачанного.
Торрент: Зарегистрирован [2014-08-19 09:30] · скачан: 51 раз
Статус: √ проверено
Размер: 4.26 GB
Как cкачать? Как скачать Побеждая время через торрент | UTorrent

% Раздел Тема Автор DL S | L
Фильмы 2013 [DVDrip, WEB-DLRip, HDrip] [ 1.42 GB ] Побеждая время / Считанные часы / Hours [2013 HDRip-AVC MVO [лицензия] От R.G. PiratFilms White Smoke Скачать
1 | 0

28-11-2019 20:33  

Отключить всю рекламу на сайте

    Дорогой пользователь! Огромная просьба, поблагодарите релизера, оцените раздачу и оставьте свои комментарий, если Вы скачали Побеждая время через торрент бесплатно! Внесите свою лепту в развитие PiratBit!
    Комментировать посты могут только пользователи прошедшие не сложную регистрацию
    Показать сообщения:    

    Побеждая время через торрент
    Скачать бесплатно Побеждая время
    Побеждая время скачать торрент
    Побеждая время смотреть онлайн
    Cкачать фильм Побеждая время бесплатно
    Побеждая время скачать торрент в хорошем качестве
    Побеждая время смотреть онлайн бесплатно в хорошем качестве


    Вы не можете начинать темы
    Вы не можете отвечать на сообщения
    Вы не можете редактировать свои сообщения
    Вы не можете удалять свои сообщения
    Вы не можете голосовать в опросах
    Вы не можете прикреплять файлы к сообщениям
    Вы можете скачивать файлы