Ссылка на приватное зеркало нашего сайта всего за 1$. Внимание количество ограничено!!!

2 сезон

iTunes

1 сезон

1

iTunes

iTunes

iTunes

1 сезон

RePack

30

ИГРА 18+

pack

ВАЖНО

!!Акция!!

Alien_RageХит недели

RePack

MK11
pack

Забери бонус

RePack

jed

!!Акция!!

Alien_Rage

RePack

fifa19

RePack

Assassins Creed: Odyssey

RePack

NEED FOR SPEED™ PAYBACK

4 сезон

9 сезон

Бесстыжие 9 сезон

Все сериалы

все сериалы на PB.wtf

RePack

FAR CRY 5
  

Аромат шиповника / Сезон: 1 / Серии 1-32 из 32 (Олег Шеремет, Татьяна Мирошник, Вадим Дербенёв) [2014, Россия, мелодрама, SATRip) pb.wtf

Аромат шиповника через торрент pb.wtf

Размер: 17.19 GB | Добавлен: 6 лет 1 мес. назад | Торрент скачан:344 раза
Скачать  

20-08-2014 02:56 Аромат шиповника Скачать торрент  

Аромат шиповника


  • Год выпуска: 2014
  • Страна: Россия
  • Жанр: мелодрама
  • Продолжительность: 00:39:16 (Серия)
  • Перевод: Не требуется

  • Режиссер: Олег Шеремет, Татьяна Мирошник, Вадим Дербенёв
  • В ролях:

    Мария Ильина (Надя), Ирина Фролова (Тамара), Виктория Сергеева (заведующая детским домом), Виктор Муравский (врач-гинеколог), Ефим Клиновский (Рома)

  • Описание:
    Ткацкая фабрика, единственное предприятие в небольшом поселке, поневоле становится центром "вселенной" для местного населения: на ней работает большая часть жителей, сюда приходят бывшие выпускники школы, не поступившие на учебу, приходят временно и часто остаются навсегда, потому что альтернативы все равно нет, разве что уехать в поисках лучшей судьбы в большой город.
  • Рейтинг:



  • Качество: SATRip
  • Формат: :AVI
  • Видео кодек: XviD
  • Аудио кодек: MP3
  • Видео: 720x384 (1.875), 1755 kbps, 25 fps, 0,254 bpp
  • Аудио: 2.0 / 48 kHz / 192 kbps
  • Релиз от: GEKADOL

    Не нашли то, что искали? Для вас "Стол заказов" "Жмём сюда!"

    Код:

    Внимание! Раздача ведётся путём добавления новых серий; при каждом добавлении создаётся новый торрент. Чтобы начать докачку новой серии, пользователям необходимо сделать следующее:
    (1) остановить скачивание,
    (2) удалить старый торрент у себя из клиента (старые серии удалять не надо),
    (3) скачать новый торрент и запустить его у себя в клиенте вместо старого, при этом указать клиенту путь в старую папку куда и должно происходить скачивание новых серий.
    Ваш клиент при этом должен произвести хеширование (проверку) старой папки (если не производит сам - помогите ему сделать это), и будет докачивать только те серии которых у вас ещё нет. Старые серии при этом не удаляются, а продолжают раздаваться!
    Eсли вы уже удалили старые серии, то предотвратить повторную закачку старых серий можно, отжав галочку в соответсвующих местах при запуске нового торрента. По возможности, желательно не удалять старые серии как можно дольше чтобы релизёр не столько продолжал раздавать старые серии, а смог сконцентрироваться на новых.


    Код:

    General
    Complete name                            : D:\Фильмы\Aromat.scipovnika.2014.SATRip.RG.Russkie.serialy.&.Files-x\02.Aromat.scipovnika.2014.SATRip.RG.Russkie.serialy.&.Files-x.avi
    Format                                   : AVI
    Format/Info                              : Audio Video Interleave
    File size                                : 550 MiB
    Duration                                 : 39mn 16s
    Overall bit rate                         : 1 957 Kbps
    Writing application                      : VirtualDubMod 1.5.10.3 | www.virtualdub-fr.org || (build 2550/release)
    Writing library                          : VirtualDubMod build 2550/release

    Video
    ID                                       : 0
    Format                                   : MPEG-4 Visual
    Format profile                           : Advanced Simple@L5
    Format settings, BVOP                    : 1
    Format settings, QPel                    : No
    Format settings, GMC                     : No warppoints
    Format settings, Matrix                  : Custom
    Codec ID                                 : XVID
    Codec ID/Hint                            : XviD
    Duration                                 : 39mn 16s
    Bit rate                                 : 1 756 Kbps
    Width                                    : 720 pixels
    Height                                   : 384 pixels
    Display aspect ratio                     : 1.875
    Frame rate                               : 25.000 fps
    Color space                              : YUV
    Chroma subsampling                       : 4:2:0
    Bit depth                                : 8 bits
    Scan type                                : Progressive
    Compression mode                         : Lossy
    Bits/(Pixel*Frame)                       : 0.254
    Stream size                              : 493 MiB (90%)
    Writing library                          : XviD 73

    Audio
    ID                                       : 1
    Format                                   : MPEG Audio
    Format version                           : Version 1
    Format profile                           : Layer 3
    Codec ID                                 : 55
    Codec ID/Hint                            : MP3
    Duration                                 : 39mn 16s
    Bit rate mode                            : Constant
    Bit rate                                 : 192 Kbps
    Channel(s)                               : 2 channels
    Sampling rate                            : 48.0 KHz
    Compression mode                         : Lossy
    Stream size                              : 53.9 MiB (10%)
    Alignment                                : Aligned on interleaves
    Interleave, duration                     : 40 ms (1.00 video frame)
    Interleave, preload duration             : 504 ms
    Writing library                          : LAME3.99r
    Encoding settings                        : -m s -V 4 -q 2 -lowpass 18.6 -b 192


    Скриншоты:
    скриншот   скриншот   скриншот   скриншот   скриншот  

    Раздача ведётся путём добавления новых серий. Добавлена 32 серия (12.09.2014).Просьба перекачать торрент файл.

    pb.wtf



  • Скачать Аромат шиповника через торрент http://i65.fastpic.ru/big/2014/0820/cd/2842e2ca04e3d2340af91ce7919f99cd.jpg Скачать фильм Аромат шиповника через торрент бесплантно в хорошем качестве Описание: Ткацкая фабрика, единственное предприятие в небольшом поселке, поневоле становится центром "вселенной" для местного населения: ... 9.6 10 13
    Info! Золотая раздача, скачанное не засчитывается.
    Торрент: Зарегистрирован [2014-09-12 00:30] · скачан: 344 раз
    Статус: √ проверено
    Размер: 17.19 GB
    Как cкачать? Как скачать Аромат шиповника через торрент | qTorrent

    28-11-2019 20:33  

    Отключить всю рекламу на сайте

    07-02-2015 06:27 Аромат шиповника Скачать торрент  

    спасибо ,жена отстала,го нагибать ))))pb.wtf



      Дорогой пользователь! Огромная просьба, поблагодарите релизера, оцените раздачу и оставьте свои комментарий, если Вы скачали Аромат шиповника через торрент бесплатно! Внесите свою лепту в развитие PiratBit!
      Комментировать посты могут только пользователи прошедшие не сложную регистрацию
      Показать сообщения:    

      Аромат шиповника через торрент
      Скачать бесплатно Аромат шиповника
      Аромат шиповника скачать торрент
      Аромат шиповника смотреть онлайн
      Cкачать фильм Аромат шиповника бесплатно
      Аромат шиповника скачать торрент в хорошем качестве
      Аромат шиповника смотреть онлайн бесплатно в хорошем качестве


      Вы не можете начинать темы
      Вы не можете отвечать на сообщения
      Вы не можете редактировать свои сообщения
      Вы не можете удалять свои сообщения
      Вы не можете голосовать в опросах
      Вы не можете прикреплять файлы к сообщениям
      Вы можете скачивать файлы