Всегда рабочее зеркало без VPN и Proxy просто перед .vidak.icu напиши любое слово или цифру, Пример http://9igo.vidak.icu

MVO

2 сезон

2 сезон

1

1 сезон

iTunes

2 сезон

13

1 сезон

Распродажа

pack

Рекомендуем

Пиратка

30

ВАЖНО

RePack

MK11

RePack

jed

RePack

fifa19

RePack

RDR2

RePack

NEED FOR SPEED™ PAYBACK

Кинопоиск HD

6 сезон

 Острые козырьки 6 сезон

Все сериалы

все сериалы на PB.wtf

RePack

FAR CRY 5

Anonymous, нам критически не хватает 5601 руб. на оплату серверов и переферии за Апрель, помоги нам пожалуйста, вся надежда только на тебя. В благодарность мы отключим тебе всю рекламу на сайте!

×
  
Magnet ссылка

Воздушный маршал / Non-Stop (Жауме Коллет-Серра ) [2014, Боевик, триллер, детектив, HDRip-AVC][Лицензия] pb.wtf

Воздушный маршал через торрент pb.wtf

Размер: 2.91 GB | Добавлен: 7 лет 8 мес. назад | Торрент скачан:753 раза
Смотреть онлайн Воздушный маршал | Скачать    Ребята, помогите собрать деньги на оплату серверов!!!

20-08-2014 14:26 Воздушный маршал Скачать торрент  


Воздушный маршал / Non-Stop
  • Год выхода: 2014
  • Страна: США
  • Жанр: Боевик, триллер, детектив
  • Продолжительность: 01:46:37
  • Перевод: Дублированный [Лицензия]
  • Субтитры: Russian,English,Danish,Italian,Portuguese,

  • Режиссёр:
    Хауме Кольет-Серра

  • В ролях:
    Лиам Нисон, Джулианна Мур, Скут МакНэйри, Мишель Докери, Нэйт Паркер, Кори Столл, Лупита Нионго, Омар Метуолли, Джейсон Батлер Харнер, Лайнас Роуч

  • Описание:
    Межконтинентальный авиарейс. Билл Маркс, воздушный маршал, который обеспечивает безопасность пассажиров, получает сообщения с угрозами от маньяка-террориста. Преступник просчитал все ходы и подставил под обвинение самого спецагента. Теперь Маркс — цель спецслужб США. Ему остается одно: вычислить и обезвредить преступника, спасти пассажиров и свою любовь, которую он обретает на краю гибели. До взрыва остаются считанные минуты…

  • Качество: HDRip-AVC |BDRip 1080p|
  • Формат: MKV
  • Видео кодек: H.264
  • Аудио кодек: AC3
  • Видео: AVC, 1024x424 (2.35), 24.000 fps, 2 755 Kbps (0.252 bit/pixel)
  • Аудио 1: AC-3, 48.0 KHz, 6 ch, 448 Kbps, CBR |Russian|
  • Аудио 2: AC-3, 48.0 KHz, 6 ch, 448 Kbps, CBR |Russian|
  • Аудио 2: AC-3, 48.0 KHz, 6 ch, 448 Kbps, CBR |English|

  • Автор рипа: vovan
Семпл
Общее
Уникальный идентификатор : 181264075715625287517150652249264571438 (0x885E30EDA635504985598994955B442E)
Полное имя : D:\Фильмы\Non-Stop.2014.HDRip-AVC...vovan...mkv
Формат : Matroska
Версия формата : Version 2
Размер файла : 2,91 Гбайт
Продолжительность : 1 ч. 46 м.
Общий поток : 3904 Кбит/сек
Дата кодирования : UTC 2014-08-12 22:27:09
Программа кодирования : mkvmerge v7.0.0 ('Where We Going') 32bit built on Jun 9 2014 15:08:34
Библиотека кодирования : libebml v1.3.0 + libmatroska v1.4.1
DURATION : 01:39:09.165000000
NUMBER_OF_FRAMES : 1357
NUMBER_OF_BYTES : 50460
_STATISTICS_WRITING_APP : mkvmerge v7.0.0 ('Where We Going') 32bit built on Jun 9 2014 15:08:34
_STATISTICS_WRITING_DATE_UTC : 2014-08-12 22:27:09
_STATISTICS_TAGS : BPS DURATION NUMBER_OF_FRAMES NUMBER_OF_BYTES

Видео
Идентификатор : 1
Формат : AVC
Формат/Информация : Advanced Video Codec
Профиль формата : High@L3.1
Параметр CABAC формата : Да
Параметр ReFrames формата : 4 кадра
Идентификатор кодека : V_MPEG4/ISO/AVC
Продолжительность : 1 ч. 46 м.
Битрейт : 2558 Кбит/сек
Ширина : 1024 пикселя
Высота : 424 пикселя
Соотношение сторон : 2,40:1
Режим частоты кадров : Постоянный
Частота кадров : 23,976 кадра/сек
Цветовое пространство : YUV
Субдискретизация насыщенности : 4:2:0
Битовая глубина : 8 бит
Тип развёртки : Прогрессивная
Бит/(Пиксели*Кадры) : 0.246
Размер потока : 1,85 Гбайт (64%)
Библиотека кодирования : x264 core 142 r2431 ac76440
Настройки программы : cabac=1 / ref=3 / deblock=1:0:0 / analyse=0x3:0x113 / me=hex / subme=7 / psy=1 / psy_rd=1.00:0.00 / mixed_ref=1 / me_range=16 / chroma_me=1 / trellis=1 / 8x8dct=1 / cqm=0 / deadzone=21,11 / fast_pskip=1 / chroma_qp_offset=-2 / threads=12 / lookahead_threads=2 / sliced_threads=0 / nr=0 / decimate=1 / interlaced=0 / bluray_compat=0 / constrained_intra=0 / bframes=3 / b_pyramid=2 / b_adapt=1 / b_bias=0 / direct=1 / weightb=1 / open_gop=0 / weightp=2 / keyint=240 / keyint_min=23 / scenecut=40 / intra_refresh=0 / rc_lookahead=40 / rc=2pass / mbtree=1 / bitrate=2558 / ratetol=1.0 / qcomp=0.60 / qpmin=0 / qpmax=69 / qpstep=4 / cplxblur=20.0 / qblur=0.5 / ip_ratio=1.40 / aq=1:1.00
Default : Да
Forced : Нет

Аудио #1
Идентификатор : 2
Формат : AC-3
Формат/Информация : Audio Coding 3
Расширение режима : CM (complete main)
Параметр Endianness формата : Big
Идентификатор кодека : A_AC3
Продолжительность : 1 ч. 46 м.
Вид битрейта : Постоянный
Битрейт : 448 Кбит/сек
Каналы : 6 каналов
Расположение каналов : Front: L C R, Side: L R, LFE
Частота : 48,0 КГц
Битовая глубина : 16 бит
Метод сжатия : С потерями
Размер потока : 342 Мбайт (11%)
Язык : Russian
Default : Да
Forced : Нет

Аудио #2
Идентификатор : 3
Формат : AC-3
Формат/Информация : Audio Coding 3
Расширение режима : CM (complete main)
Параметр Endianness формата : Big
Идентификатор кодека : A_AC3
Продолжительность : 1 ч. 46 м.
Вид битрейта : Постоянный
Битрейт : 448 Кбит/сек
Каналы : 6 каналов
Расположение каналов : Front: L C R, Side: L R, LFE
Частота : 48,0 КГц
Битовая глубина : 16 бит
Метод сжатия : С потерями
Размер потока : 342 Мбайт (11%)
Язык : Russian
Default : Нет
Forced : Нет

Аудио #3
Идентификатор : 4
Формат : AC-3
Формат/Информация : Audio Coding 3
Расширение режима : CM (complete main)
Параметр Endianness формата : Big
Идентификатор кодека : A_AC3
Продолжительность : 1 ч. 46 м.
Вид битрейта : Постоянный
Битрейт : 448 Кбит/сек
Каналы : 6 каналов
Расположение каналов : Front: L C R, Side: L R, LFE
Частота : 48,0 КГц
Битовая глубина : 16 бит
Метод сжатия : С потерями
Размер потока : 342 Мбайт (11%)
Язык : English
Default : Нет
Forced : Нет

Текст #1
Идентификатор : 5
Формат : UTF-8
Идентификатор кодека : S_TEXT/UTF8
Идентификатор кодека/Информация : UTF-8 Plain Text
Заголовок : Sub-forced
Язык : Russian
Default : Да
Forced : Нет

Текст #2
Идентификатор : 6
Формат : UTF-8
Идентификатор кодека : S_TEXT/UTF8
Идентификатор кодека/Информация : UTF-8 Plain Text
Заголовок : Sub-SDH-Colored
Язык : English
Default : Нет
Forced : Нет

Текст #3
Идентификатор : 7
Формат : UTF-8
Идентификатор кодека : S_TEXT/UTF8
Идентификатор кодека/Информация : UTF-8 Plain Text
Заголовок : Sub
Язык : Danish
Default : Нет
Forced : Нет

Текст #4
Идентификатор : 8
Формат : UTF-8
Идентификатор кодека : S_TEXT/UTF8
Идентификатор кодека/Информация : UTF-8 Plain Text
Заголовок : Sub
Язык : Italian
Default : Нет
Forced : Нет

Текст #5
Идентификатор : 9
Формат : UTF-8
Идентификатор кодека : S_TEXT/UTF8
Идентификатор кодека/Информация : UTF-8 Plain Text
Заголовок : Sub
Язык : Portuguese
Default : Нет
Forced : Нет

Меню
00:00:00.000 : en:00:00:00.000
00:04:24.639 : en:00:04:24.639
00:10:29.045 : en:00:10:29.045
00:14:47.053 : en:00:14:47.053
00:18:51.839 : en:00:18:51.839
00:24:22.127 : en:00:24:22.127
00:29:44.574 : en:00:29:44.574
00:35:48.605 : en:00:35:48.605
00:39:28.491 : en:00:39:28.491
00:45:41.572 : en:00:45:41.572
00:49:03.941 : en:00:49:03.941
00:55:17.731 : en:00:55:17.731
01:01:59.257 : en:01:01:59.257
01:08:42.327 : en:01:08:42.327
01:12:16.999 : en:01:12:16.999
01:18:14.982 : en:01:18:14.982
01:26:02.032 : en:01:26:02.032
01:30:46.191 : en:01:30:46.191
01:36:14.727 : en:01:36:14.727
01:40:13.799 : en:01:40:13.799
pb.wtf



Скачать Воздушный маршал через торрент https://pic.kartinco.top/new/img/2014-08/20/9i5ba57hb8wp4mg6sfavog8iz.png Скачать, смотреть онлайн Воздушный маршал бесплантно в хорошем качестве Описание: Межконтинентальный авиарейс. Билл Маркс, воздушный маршал, который обеспечивает безопасность пассажиров, получает сообщения с ... 9.5 10 29
Торрент: Зарегистрирован [2014-08-20 14:26] · скачан: 753 раз
Статус: √ проверено
Размер: 2.91 GB
Как cкачать? Как скачать Воздушный маршал через торрент | UTorrent

% Раздел Тема Автор DL S | L
Фильмы 2014 [DVDrip, WEB-DLRip, HDrip] [ 1.37 GB ] Воздушный маршал / Non-Stop [2014 HDRip [- ] Ворон Скачать
1 | 0
Фильмы с авторской озвучкой [ 1.47 GB ] Воздушный маршал / Non-Stop [2014 HDRip] [Open Matte] [AVO] killermax2013 Скачать
1 | 0
Фильмы [HD 720p, 1080p] (Хороший звук DUB, MVO) [ 6.56 GB ] Воздушный маршал / Non-Stop [2014 BDRip 720p 2хAVO] _denis_100 Скачать
1 | 0
Фильмы 2014 [DVDrip, WEB-DLRip, HDrip] [ 2.17 GB ] Воздушный маршал / Non-Stop [2014 BDRip ] coc900 Скачать
1 | 0
Фильмы [HD 720p, 1080p] (Хороший звук DUB, MVO) [ 14.1 GB ] Воздушный маршал / Non-Stop [2014 BDRip 1080p ] от R.G. HD-Films Seedtank Скачать
1 | 0
Фильмы (Blu-ray, BD-Remux, HDDVD) [ 24.54 GB ] Воздушный маршал / Non-Stop [2014 BD-Remux ] Seedtank Скачать
1 | 0
Фильмы 2014 [DVDrip, WEB-DLRip, HDrip] [ 2.2 GB ] Воздушный маршал / Non-Stop [2014 BDRip-AVC] DUB potroks Скачать
1 | 0

28-11-2019 20:33  

Отключить всю рекламу на сайте

20-08-2014 15:45 Воздушный маршал Скачать торрент  

Я бы изменил некоторые настройки ;)
cabac=1 / ref=15 / deblock=1:-2:-1 / analyse=0x3:0x113 / me=umh / subme=10 / psy=1 / psy_rd=1.00:0.00 / mixed_ref=1 / me_range=32 / chroma_me=1 / trellis=1 / 8x8dct=1 / cqm=0 / deadzone=21,11 / fast_pskip=1 / chroma_qp_offset=-2 / threads=12 / lookahead_threads=2 / sliced_threads=0 / nr=0 / decimate=1 / interlaced=0 / bluray_compat=0 / constrained_intra=0 / bframes=9 / b_pyramid=2 / b_adapt=1 / b_bias=0 / direct=1 / weightb=1 / open_gop=0 / weightp=2 / keyint=240 / keyint_min=23 / scenecut=40 / intra_refresh=0 / rc_lookahead=60 / rc=2pass / mbtree=1 / bitrate=2558 / ratetol=1.0 / qcomp=0.60 / qpmin=0 / qpmax=69 / qpstep=4 / cplxblur=20.0 / qblur=0.5 / ip_ratio=1.40 / aq=1:1.00pb.wtf



21-08-2014 07:30 Воздушный маршал Скачать торрент  

Прикольный фильм!pb.wtf



05-08-2015 17:07 Воздушный маршал Скачать торрент  

Ну дайте же скорости уже второй день не могу скачать пля...pb.wtf



    Дорогой пользователь! Огромная просьба, поблагодарите релизера, оцените раздачу и оставьте свои комментарий, если Вы скачали Воздушный маршал через торрент бесплатно!
    Комментировать посты могут только пользователи прошедшие не сложную регистрацию
    Показать сообщения:    

    Воздушный маршал через торрент
    Скачать бесплатно Воздушный маршал
    Воздушный маршал скачать торрент
    Воздушный маршал смотреть онлайн
    Cкачать фильм Воздушный маршал бесплатно
    Воздушный маршал скачать торрент в хорошем качестве
    Воздушный маршал смотреть онлайн бесплатно в хорошем качестве


    Вы не можете начинать темы
    Вы не можете отвечать на сообщения
    Вы не можете редактировать свои сообщения
    Вы не можете удалять свои сообщения
    Вы не можете голосовать в опросах
    Вы не можете прикреплять файлы к сообщениям
    Вы можете скачивать файлы