2 сезон

iTunes

1 сезон

1

iTunes

iTunes

iTunes

1 сезон

RePack

30

ИГРА 18+

pack

ВАЖНО

!!Акция!!

Alien_RageХит недели

RePack

MK11
pack

Забери бонус

RePack

jed

!!Акция!!

Alien_Rage

RePack

fifa19

RePack

Assassins Creed: Odyssey

RePack

NEED FOR SPEED™ PAYBACK

4 сезон

9 сезон

Бесстыжие 9 сезон

Все сериалы

все сериалы на PB.wtf

RePack

FAR CRY 5
  

Охотники за головами / (Серия 1-8 из 8) (Иван Шурховецкий) [2014 г., Детектив, SATRip] pb.wtf

Охотники за головами через торрент pb.wtf

Размер: 4.47 GB | Добавлен: 6 лет 5 мес. назад | Торрент скачан:750 раз
Скачать  

30-05-2014 22:30 Охотники за головами Скачать торрент  

Охотники за головами Год выпуска: 2014
Страна: Россия
Жанр: Детектив
Продолжительность: 8 х 00:45:00

Режиссер: Иван Шурховецкий

В ролях: Филипп Янковский, Елизавета Боярская, Константин Шелестун, Артур Ваха, Денис Синявский, Борис Хвошнянский, Алексей Барабаш, Виталий Коваленко, Иван Мудров, Артем Шилов, Петар Зекавица

Описание: Тимур и Рита – «охотники за головами». Рита ищет уникальных специалистов, Тимур – опасных преступников. Однажды их пути пересекутся: они одновременно выйдут на след гениального российского химика. Его изобретение – лекарство от рака, наркомафия планирует использовать как наркотик. Героям предстоит сделать непростой моральный выбор и оказаться по одну сторону баррикад

Качество: SATRip
Формат: AVI
Видео кодек: XviD
Аудио кодек: MP3
Видео: MPEG4, XviD, 720x384 (1.875), 25.000 fps, 1 613 Kbps (0.233 bit/pixel)
Аудио: MP3, 48.0 KHz, 2 ch, 128 Kbps, CBR
скриншот   скриншот   скриншот   скриншот   скриншот   скриншот   скриншот   скриншот  

Код:

Формат                                   : AVI
Формат/Информация                        : Audio Video Interleave
Размер файла                             : 563 Мбайт
Продолжительность                        : 45 м.
Общий поток                              : 1751 Кбит/сек
Программа кодирования                    : VirtualDubMod 1.5.10.2 (build 2540/release)
Библиотека кодирования                   : VirtualDub build 32842/release

Видео
Идентификатор                            : 0
Формат                                   : MPEG-4 Visual
Профиль формата                          : Advanced Simple@L5
Параметр BVOP формата                    : 2
Параметр QPel формата                    : Нет
Параметр GMC формата                     : Без точки перехода
Параметр матрицы формата                 : Default (MPEG)
Режим смешивания                         : Сжатый битовый поток
Идентификатор кодека                     : XVID
Идентификатор кодека/Подсказка           : XviD
Продолжительность                        : 45 м.
Битрейт                                  : 1613 Кбит/сек
Ширина                                   : 720 пикселей
Высота                                   : 384 пикселя
Соотношение сторон                       : 1,85:1
Частота кадров                           : 25,000 кадров/сек
Цветовое пространство                    : YUV
Субдискретизация насыщенности            : 4:2:0
Битовая глубина                          : 8 бит
Тип развёртки                            : Прогрессивная
Метод сжатия                             : С потерями
Бит/(Пиксели*Кадры)                      : 0.233
Размер потока                            : 519 Мбайт (92%)
Библиотека кодирования                   : XviD 64

Аудио
Идентификатор                            : 1
Формат                                   : MPEG Audio
Версия формата                           : Version 1
Профиль формата                          : Layer 3
Режим                                    : Joint stereo
Идентификатор кодека                     : 55
Идентификатор кодека/Подсказка           : MP3
Продолжительность                        : 45 м.
Вид битрейта                             : Постоянный
Битрейт                                  : 128 Кбит/сек
Каналы                                   : 2 канала
Частота                                  : 48,0 КГц
Метод сжатия                             : С потерями
Размер потока                            : 41,2 Мбайт (7%)
Выравнивание                             : Соединение по промежуткам
Продолжительность промежутка             : 40  мс. (1,00 видеокадр)
Время предзагрузки промежутка            : 504  мс.


pb.wtf



Скачать Охотники за головами через торрент http://pic.kartinco.top/new/img/2014-05/30/tr9y2frwpjkj6naxosb97gvsy.jpg Скачать фильм Охотники за головами через торрент бесплантно в хорошем качестве Описание: Тимур и Рита – «охотники за головами». Рита ищет уникальных специалистов, Тимур – опасных преступников. Однажды их пути ... 9.5 10 21
Info! Золотая раздача, скачанное не засчитывается.
Торрент: Зарегистрирован [2014-05-30 22:30] · скачан: 750 раз
Статус: √ проверено
Размер: 4.47 GB
Как cкачать? Как скачать Охотники за головами через торрент | qTorrent

% Раздел Тема Автор DL S | L
Фильмы 2017 [DVDrip, WEB-DLRip, HDrip] (DUB, MVO) [ 2.18 GB ] Бун: Охотник за головами / Boone: The Bounty Hunter [2017 BDRip-AVC] MVO - ExKinoRay Enigma2010 Скачать
23 | 0
Зарубежные сериалы [ 6.9 GB ] Охотники за наживой / Охотники за головами / Bounty Hunters / Сезон: 1-2 / Серии: 1-12 из 12 [2017-2019 . WEB-DL 1080p] [VO] killermax2013 Скачать
1 | 0
Зарубежные сериалы [ 3.24 GB ] Охотники за наживой / Охотники за головами / Bounty Hunters / Сезон: 1-2 / Серии: 1-9 из 12 [2017-2019 . WEB-DLRip] [VO] killermax2013 Скачать
1 | 0
Зарубежные сериалы [ 4.99 GB ] Охотники за головами / Охотники за наживой / Bounty Hunters / Сезон: 2 / Серии: 1-5 из 5 [2019 WEB-DL 1080p] [MVO] killermax2013 Скачать
1 | 0
Зарубежные сериалы [ 2.4 GB ] Охотники за головами / Bounty Hunters / Сезон: 2 / Серии: 1-5 из 5 [2019 HDTVRip 720p] [MVO] killermax2013 Скачать
1 | 0
Зарубежные сериалы [ 3.97 GB ] Охотники за головами / Bounty Hunters / Сезон: 1 / Серии: 1-6 из 6 [2017 HDTVRip 720p] [MVO] killermax2013 Скачать
1 | 0
Документальные фильмы и телепередачи [ 1.29 GB ] Охотники за человеческими головами [2019 Документальный SATRip] Armstrong Скачать
1 | 0

28-11-2019 20:33  

Отключить всю рекламу на сайте

07-06-2014 04:16 Охотники за головами Скачать торрент  

pb.wtf



    Дорогой пользователь! Огромная просьба, поблагодарите релизера, оцените раздачу и оставьте свои комментарий, если Вы скачали Охотники за головами через торрент бесплатно! Внесите свою лепту в развитие PiratBit!
    Комментировать посты могут только пользователи прошедшие не сложную регистрацию
    Показать сообщения:    

    Охотники за головами через торрент
    Скачать бесплатно Охотники за головами
    Охотники за головами скачать торрент
    Охотники за головами смотреть онлайн
    Cкачать фильм Охотники за головами бесплатно
    Охотники за головами скачать торрент в хорошем качестве
    Охотники за головами смотреть онлайн бесплатно в хорошем качестве


    Вы не можете начинать темы
    Вы не можете отвечать на сообщения
    Вы не можете редактировать свои сообщения
    Вы не можете удалять свои сообщения
    Вы не можете голосовать в опросах
    Вы не можете прикреплять файлы к сообщениям
    Вы можете скачивать файлы