Ссылка на приватное зеркало нашего сайта всего за 1$. Внимание количество ограничено!!!

2 сезон

iTunes

1 сезон

1

2 сезон

2 сезон

iTunes

1 сезон

RePack

30

Ultimate

ВАЖНО

ИГРА 18+

pack

RePack

MK11
pack

Забери бонус

RePack

jed

!!Акция!!

Alien_Rage

RePack

fifa19

RePack

Assassins Creed: Odyssey

RePack

NEED FOR SPEED™ PAYBACK

4 сезон

9 сезон

Бесстыжие 9 сезон

Все сериалы

все сериалы на PB.wtf

RePack

FAR CRY 5
  

Повелители Салема / The Lords of Salem (Роб Зомби) [2012 г., Ужасы, триллер, WEB-DLRip 720p, MVO] pb.wtf

Повелители Салема через торрент pb.wtf

Размер: 3.38 GB | Добавлен: 7 лет 3 мес. назад | Торрент скачан:139 раз
Скачать  

03-08-2013 18:33 Повелители Салема Скачать торрент  

Повелители Салема / The Lords of SalemГод выпуска: 2013
Страна: США, Великобритания, Канада
Жанр: Ужасы, триллер,
Продолжительность: 01:40:59
Перевод: Профессиональный (многоголосый)

Режиссер: Роб Зомби

Бюджет: $1 500 000
Премьера в мире: 10 сентября 2012





В ролях: Шери Мун Зомби, Брюс Дэвисон, Джеффри Дэниэл Филлипс, Джуди Гисон, Мег Фостер, Патриция Куинн, Кен Фори, Ди Уоллес-Стоун, Мария Кончита Алонсо, Ричард Фэнси,

Описание: Блондинка Хейди — крутая диск-жокейка провинциальной радиостанции, вместе с двумя друзьями они составляют команду Big H Radio. Хейди получает странную посылку — деревянную коробку с виниловой пластинкой, «подарок от Властелинов». Она решает, что это неизвестная ей прежде рок-группа таким образом обращает на себя внимание. Но когда пластинка начинает играть, Хейди испытывает шок, связанный с подавленными воспоминаниями. Однако никто больше ничего подобного не переживает и песня, названная «Властелины Салема», становится хитом. Позднее приходит еще одна посылка от Властелинов, содержащая плакаты, аудио и три бесплатных пригласительных билета на некую вечеринку в Салеме. Хейди и ее друзьям предстоит узнать, что это будет вовсе не рок-концерт: самые настоящие властелины ведьмовского города Салем вернулись и жаждут крови.

Качество: WEB-DLRip 720p
Формат: MKV
Видео кодек: MPEG4
Аудио кодек: AC3
Видео: 1280x532 (2,40:1), 23.976 fps, MPEG-4 AVC ~ 3864 kbps avg, 0.237 bit/pixel
Аудио#1: 48 kHz, AC3 Dolby Digital, 3/2 (L,C,R,l,r) + LFE ch, ~448 kbps[Russian]
Аудио#2: 48 kHz, AC3 Dolby Digital, 3/2 (L,C,R,l,r) + LFE ch, ~384 kbps[English]скриншот   скриншот   скриншот   скриншот   скриншот   скриншот  
Общее
Уникальный идентификатор : 232022505661617328586225352409582487548 (0xAE8DE8BD90E0F41EB67FCC054B5947FC)
Полное имя : C:VideoPovelitel.salema.2012.P.720p.WEB-DL.mkv
Формат : Matroska
Версия формата : Version 2
Размер файла : 3,38 Гбайт
Продолжительность : 1 ч. 40 м.
Общий поток : 4792 Кбит/сек
Дата кодирования : UTC 2013-06-28 16:47:05
Программа кодирования : mkvmerge v2.9.8 ('C'est le bon') built on Nov 20 2009 13:01:15
Библиотека кодирования : libebml v0.7.9 + libmatroska v0.8.1

Видео
Идентификатор : 1
Формат : AVC
Формат/Информация : Advanced Video Codec
Профиль формата : Main@L3.1
Параметр CABAC формата : Нет
Параметр ReFrames формата : 2 кадра
Идентификатор кодека : V_MPEG4/ISO/AVC
Продолжительность : 1 ч. 40 м.
Битрейт : 3864 Кбит/сек
Ширина : 1280 пикселей
Высота : 532 пикселя
Соотношение сторон : 2,40:1
Режим частоты кадров : Постоянный
Частота кадров : 23,976 кадра/сек
Цветовое пространство : YUV
Субдискретизация насыщенности : 4:2:0
Битовая глубина : 8 бит
Тип развёртки : Прогрессивная
Бит/(Пиксели*Кадры) : 0.237
Размер потока : 2,73 Гбайт (81%)
Заголовок : 03nazar03
Язык : English
Default : Нет
Forced : Нет
Основные цвета : BT.709
Характеристики трансфера : BT.709
Коэффициенты матрицы : BT.709

Аудио #1
Идентификатор : 2
Формат : AC-3
Формат/Информация : Audio Coding 3
Расширение режима : CM (complete main)
Параметр Endianness формата : Big
Идентификатор кодека : A_AC3
Продолжительность : 1 ч. 40 м.
Вид битрейта : Постоянный
Битрейт : 448 Кбит/сек
Каналы : 6 каналов
Расположение каналов : Front: L C R, Side: L R, LFE
Частота : 48,0 КГц
Битовая глубина : 16 бит
Метод сжатия : С потерями
Размер потока : 324 Мбайт (9%)
Заголовок : 03nazar03
Язык : Russian
Default : Да
Forced : Да

Аудио #2
Идентификатор : 3
Формат : AC-3
Формат/Информация : Audio Coding 3
Расширение режима : CM (complete main)
Параметр Endianness формата : Big
Идентификатор кодека : A_AC3
Продолжительность : 1 ч. 40 м.
Вид битрейта : Постоянный
Битрейт : 384 Кбит/сек
Каналы : 6 каналов
Расположение каналов : Front: L C R, Side: L R, LFE
Частота : 48,0 КГц
Битовая глубина : 16 бит
Метод сжатия : С потерями
Размер потока : 277 Мбайт (8%)
Язык : English
Default : Нет
Forced : Нет

Меню
00:00:00.000 : en:Chapter 1
00:08:04.000 : en:Chapter 2
00:15:47.000 : en:Chapter 3
00:25:29.000 : en:Chapter 4
00:33:18.000 : en:Chapter 5
00:41:16.000 : en:Chapter 6
00:50:21.000 : en:Chapter 7
00:59:18.000 : en:Chapter 8
01:07:04.000 : en:Chapter 9
01:14:52.000 : en:Chapter 10
01:23:19.000 : en:Chapter 11
01:32:30.000 : en:Chapter 12


Повелители Салема скачать торрент


pb.wtf



Скачать Повелители Салема через торрент http://i49.fastpic.ru/big/2013/0803/67/424bc3f5278f630cb0e36af2309d4767.png Скачать фильм Повелители Салема через торрент бесплантно в хорошем качестве Описание: Блондинка Хейди — крутая диск-жокейка провинциальной радиостанции, вместе с двумя друзьями они составляют команду Big H Radio. ... 8.8 10 10
Info! Золотая раздача, скачанное не засчитывается.
Торрент: Зарегистрирован [2013-08-03 18:33] · скачан: 139 раз
Статус: √ проверено
Размер: 3.38 GB
Как cкачать? Как скачать Повелители Салема через торрент | qTorrent

% Раздел Тема Автор DL S | L
Фильмы 2012 [ 698 MB ] Повелители Салема / The Lords of Salem [2012 HDRip MVO лицензия] Ворон Скачать
1 | 0
Фильмы 2012 [ 1.46 GB ] Повелители Салема / The Lords of Salem [2012 HDRip MVO лицензия] Ворон Скачать
1 | 0
Фильмы 2012 [ 1.37 GB ] Повелители Салема / The Lords of Salem [2012 WEB-DLRip VO ] QuoVadis Скачать
1 | 0


Последний раз редактировалось: Alexxx5252 (2013-08-12 18:14), всего редактировалось 1 раз

28-11-2019 20:33  

Отключить всю рекламу на сайте

07-08-2013 06:36 Повелители Салема Скачать торрент  

Старина Роб в своем стиле.pb.wtf



    Дорогой пользователь! Огромная просьба, поблагодарите релизера, оцените раздачу и оставьте свои комментарий, если Вы скачали Повелители Салема через торрент бесплатно! Внесите свою лепту в развитие PiratBit!
    Комментировать посты могут только пользователи прошедшие не сложную регистрацию
    Показать сообщения:    

    Повелители Салема через торрент
    Скачать бесплатно Повелители Салема
    Повелители Салема скачать торрент
    Повелители Салема смотреть онлайн
    Cкачать фильм Повелители Салема бесплатно
    Повелители Салема скачать торрент в хорошем качестве
    Повелители Салема смотреть онлайн бесплатно в хорошем качестве


    Вы не можете начинать темы
    Вы не можете отвечать на сообщения
    Вы не можете редактировать свои сообщения
    Вы не можете удалять свои сообщения
    Вы не можете голосовать в опросах
    Вы не можете прикреплять файлы к сообщениям
    Вы можете скачивать файлы