1 сезон

3 сезон

iTunes

1

iTunes

MVO

iTunes

13

1 сезон

RePack

30

Deluxe

pack

Лицензия

ВАЖНО

ИГРА 18+

pack

RePack

MK11

RePack

jed

RePack

fifa19

RePack

RDR2

RePack

NEED FOR SPEED™ PAYBACK

4 сезон

9 сезон

Бесстыжие 9 сезон

Все сериалы

все сериалы на PB.wtf

RePack

FAR CRY 5

Anonymous, добрый вечер, мы катастрофически не успеваем собрать деньги на оплату серверов, помогите нам пожалуйста 5,10,15р., для нас важна любая помощь . В качестве благодарности мы отключим Вам всю рекламу на сайте (укажите свой ник в строку Ваше имя)!

×
  
Magnet ссылка

Одна встреча / Une rencontre (Лиза Азуэлос / Lisa Azuelos) [2014, драма, мелодрама, DVD5] R5 pb.wtf

Одна встреча через торрент pb.wtf

Размер: 3.82 GB | Добавлен: 6 лет 11 мес. назад | Торрент скачан:38 раз
Скачать  

20-08-2014 20:34 Одна встреча Скачать торрент  


Одна встреча / Une rencontre
Страна: Франция
Студия: Bethsabée Mucho, Canal+ [fr], Chaocorp DГ©veloppement, Ciné, Cofimage 25, Movie Pictures, Pathé, TF1, TF1 Films Production, TMC
Жанр: драма, мелодрама
Год выпуска: 2014
Мировая премьера: 12 января 2014
Российская премьера: 3 июля 2014
Дата выхода DVD: 19 августа 2014
Продолжительность: 01:18:40
Перевод: Профессиональный (дублированный) [Лицензия]
Cубтитры: нет
Оригинальная аудиодорожка: нет
Режиссер: Лиза Азуэлос / Lisa Azuelos
В ролях: Софи Марсо, Франсуа Клюзе, Лиза Азуэлос, Александр Астье, Артур Бензакен, Джонатан Коэн, Нильс Шнайдер, Стефани Мурат, Оливия Коте, Сайрус Шахиди
Описание: Случайная встреча семьянина с красивой женщиной порождает взаимное притяжение между ними…
Бонусы: нет

Релиз группы:
Качество: DVD5 R5
Формат: DVD-Video
Видео кодек: MPEG2
Аудио кодек: AC3
Видео: PAL 16:9 (720x576(0.599)) MPEG Video, 25,000 кадр/сек, 6209 Кбит/сек
Аудио: Russian (Dolby AC3, 6 ch) 448 Кбит/сек, 48,0 КГц



Title: Odna.vstrecha.2014.DVD5
Size: 3.82 Gb ( 4 005 082,00 KBytes ) - DVD-5
Enabled regions: 1, 2, 3, 4, 5, 6, 7, 8

VTS_01 :
Play Length: 00:00:19
Video: PAL 16:9 (720x576) VBR, Auto Pan&Scan, Auto Letterboxed
Audio:
Not specified (Dolby AC3, 2 ch)

VTS_02 :
Play Length: 01:18:40
Video: PAL 16:9 (720x576) VBR, Auto Letterboxed
Audio:
Not specified (Dolby AC3, 6 ch)

* Menus Information *

VIDEO_TS Menu
Video:
PAL 16:9 (720x576) VBR
Auto Pan&Scan, Auto Letterboxed
English Language Unit :
Title Menu

VTS_01 Menu
Video:
PAL 16:9 (720x576) VBR
Auto Pan&Scan, Auto Letterboxed
Audio:
Not specified (Dolby AC3, 6 ch)
English Language Unit :
Root Menu

VTS_02 Menu
Video:
PAL 4:3 (720x576) VBR
English Language Unit :
Root Menu
Общее
Полное имя : D:\Новинки 2014\Odna.vstrecha.2014.DVD5\VIDEO_TS\VTS_02_1.VOB
Формат : MPEG-PS
Размер файла : 1024 Мбайт
Продолжительность : 21 м.
Режим общего битрейта : Переменный
Общий поток : 6792 Кбит/сек

Видео
Идентификатор : 224 (0xE0)
Формат : MPEG Video
Версия формата : Version 2
Профиль формата : Main@Main
Параметр BVOP формата : Да
Параметр матрицы формата : Выборочная
Параметр GOP формата : M=3, N=12
Продолжительность : 21 м.
Вид битрейта : Переменный
Битрейт : 6209 Кбит/сек
Максимальный битрейт : 9000 Кбит/сек
Ширина : 720 пикселей
Высота : 576 пикселей
Соотношение сторон : 16:9
Частота кадров : 25,000 кадров/сек
Стандарт вещания : PAL
Цветовое пространство : YUV
Субдискретизация насыщенности : 4:2:0
Битовая глубина : 8 бит
Тип развёртки : Чересстрочная
Порядок развёртки : Верхнее поле первое
Метод сжатия : С потерями
Бит/(Пиксели*Кадры) : 0.599
Временной код первого кадра : 01:00:00:00
Оригинал временного кода : Group of pictures header
Размер потока : 936 Мбайт (91%)
Основные цвета : BT.601 PAL
Характеристики трансфера : BT.470 System B, BT.470 System G
Коэффициенты матрицы : BT.601

Аудио
Идентификатор : 189 (0xBD)-128 (0x80)
Формат : AC-3
Формат/Информация : Audio Coding 3
Расширение режима : CM (complete main)
Параметр Endianness формата : Big
Режим смешивания : DVD-Video
Продолжительность : 21 м.
Вид битрейта : Постоянный
Битрейт : 448 Кбит/сек
Каналы : 6 каналов
Расположение каналов : Front: L C R, Side: L R, LFE
Частота : 48,0 КГц
Битовая глубина : 16 бит
Метод сжатия : С потерями
Размер потока : 67,5 Мбайт (7%)










pb.wtf



Скачать Одна встреча через торрент http://i65.fastpic.ru/big/2014/0820/0b/b7d054189c57a1cbda86db591cdbc60b.jpg Скачать фильм Одна встреча через торрент бесплантно в хорошем качестве Описание: Случайная встреча семьянина с красивой женщиной порождает взаимное притяжение между ними…Бонусы: нет Релиз ... 10 10 3
Торрент: Зарегистрирован [2014-08-20 20:34] · скачан: 38 раз
Статус: √ проверено
Размер: 3.82 GB
Как cкачать? Как скачать Одна встреча через торрент | UTorrent

28-11-2019 20:33  

Отключить всю рекламу на сайте

    Дорогой пользователь! Огромная просьба, поблагодарите релизера, оцените раздачу и оставьте свои комментарий, если Вы скачали Одна встреча через торрент бесплатно! Внесите свою лепту в развитие PiratBit!
    Комментировать посты могут только пользователи прошедшие не сложную регистрацию
    Показать сообщения:    

    Одна встреча через торрент
    Скачать бесплатно Одна встреча
    Одна встреча скачать торрент
    Одна встреча смотреть онлайн
    Cкачать фильм Одна встреча бесплатно
    Одна встреча скачать торрент в хорошем качестве
    Одна встреча смотреть онлайн бесплатно в хорошем качестве


    Вы не можете начинать темы
    Вы не можете отвечать на сообщения
    Вы не можете редактировать свои сообщения
    Вы не можете удалять свои сообщения
    Вы не можете голосовать в опросах
    Вы не можете прикреплять файлы к сообщениям
    Вы можете скачивать файлы