1 сезон

3 сезон

iTunes

1

iTunes

MVO

iTunes

13

1 сезон

RePack

30

Deluxe

pack

Лицензия

ВАЖНО

ИГРА 18+

pack

RePack

MK11

RePack

jed

RePack

fifa19

RePack

RDR2

RePack

NEED FOR SPEED™ PAYBACK

4 сезон

9 сезон

Бесстыжие 9 сезон

Все сериалы

все сериалы на PB.wtf

RePack

FAR CRY 5

Anonymous, добрый вечер, мы катастрофически не успеваем собрать деньги на оплату серверов, помогите нам пожалуйста 5,10,15р., для нас важна любая помощь . В качестве благодарности мы отключим Вам всю рекламу на сайте (укажите свой ник в строку Ваше имя)!

×
  
Magnet ссылка

Цифровая радиостанция / The Numbers Station (Каспер Барфоэд / Kasper Barfoed) [2012, боевик, триллер, DVD5] R5 pb.wtf

Цифровая радиостанция через торрент pb.wtf

Размер: 3.88 GB | Добавлен: 6 лет 11 мес. назад | Торрент скачан:37 раз
Скачать  

20-08-2014 20:54 Цифровая радиостанция Скачать торрент  


Цифровая радиостанция / The Numbers Station
«The code has never been compromised. Until now»


Страна: Великобритания, США, Бельгия
Студия: Atlantic Swiss Productions, Blue Lake Media Fund, ContentFilm International, Echo Lake Entertainment, Furst Films, International Pictures One, Le Tax Shelter du Gouvernement Fédéral de Belgique, Matador Pictures, Piccadilly Pictures, uFilm
Жанр: боевик, триллер
Год выпуска: 2012
Мировая премьера: 21 марта 2013
Дата выхода DVD: 2 сентября 2014
Продолжительность: 01:25:16
Перевод: Профессиональный (многоголосый закадровый) [Лицензия]
Cубтитры: нет
Оригинальная аудиодорожка: нет
Режиссер: Каспер Барфоэд / Kasper Barfoed
В ролях: Джон Кьюсак, Малин Акерман, Лиам Каннингэм, Ричард Брэйк, Брайан Дик, Финбар Линч, Люси Гриффитс, Джои Анса, Виктор Гарднер, Джо Монтана
Описание: После сбоя, допущенного при выполнении «грязной» работы для правительства США, спецагента отправили на тихую должность, охранять оператора секретной радиостанции в английской глубинке…
Бонусы: Скоро на DVD

Релиз группы:
Качество: DVD5 R5
Формат: DVD-Video
Видео кодек: MPEG2
Аудио кодек: AC3
Видео: PAL 16:9 (720x576(0.543)) MPEG Video, 25,000 кадр/сек, 5632 Кбит/сек
Аудио: Russian (Dolby AC3, 6 ch) 384 Кбит/сек, 48,0 КГц



Title: Cifrovaja.radiostancija.2012.DVD5
Size: 3.88 Gb ( 4 072 882,00 KBytes ) - DVD-5
Enabled regions: 1, 2, 3, 4, 5, 6, 7, 8

VTS_01 :
Play Length: 01:25:16
Video: PAL 16:9 (720x576) VBR, Auto Letterboxed
Audio:
Russian (Dolby AC3, 6 ch)

VTS_02 :
Play Length: 00:08:12
Video: PAL 16:9 (720x576) VBR, Auto Letterboxed
Audio:
Not specified (Dolby AC3, 2 ch)

* Menus Information *

VIDEO_TS Menu
Video:
PAL 16:9 (720x576) VBR
Auto Pan&Scan
Audio:
Not specified (Dolby AC3, 2 ch)
Russian Language Unit :
Title Menu

VTS_01 Menu
Video:
PAL 16:9 (720x576) VBR
Auto Pan&Scan
Audio:
Not specified (Dolby AC3, 6 ch)
Russian Language Unit :
Root Menu
Chapter (PTT) Menu

VTS_02 Menu
Video:
NTSC 4:3 (720x480) VBR
Auto Pan&Scan, Auto Letterboxed
Russian Language Unit :
Root Menu
Общее
Полное имя : D:\Новинки 2014\Cifrovaja.radiostancija.2012.DVD5\VIDEO_TS\VTS_01_2.VOB
Формат : MPEG-PS
Размер файла : 1024 Мбайт
Продолжительность : 23 м.
Режим общего битрейта : Переменный
Общий поток : 6138 Кбит/сек

Видео
Идентификатор : 224 (0xE0)
Формат : MPEG Video
Версия формата : Version 2
Профиль формата : Main@Main
Параметр BVOP формата : Да
Параметр матрицы формата : Выборочная
Параметр GOP формата : Variable
Продолжительность : 23 м.
Вид битрейта : Переменный
Битрейт : 5632 Кбит/сек
Максимальный битрейт : 9000 Кбит/сек
Ширина : 720 пикселей
Высота : 576 пикселей
Соотношение сторон : 16:9
Частота кадров : 25,000 кадров/сек
Стандарт вещания : PAL
Цветовое пространство : YUV
Субдискретизация насыщенности : 4:2:0
Битовая глубина : 8 бит
Тип развёртки : Прогрессивная
Порядок развёртки : Верхнее поле первое
Метод сжатия : С потерями
Бит/(Пиксели*Кадры) : 0.543
Временной код первого кадра : 01:24:26:02
Оригинал временного кода : Group of pictures header
Размер потока : 939 Мбайт (92%)

Аудио
Идентификатор : 189 (0xBD)-128 (0x80)
Формат : AC-3
Формат/Информация : Audio Coding 3
Расширение режима : CM (complete main)
Параметр Endianness формата : Big
Режим смешивания : DVD-Video
Продолжительность : 23 м.
Вид битрейта : Постоянный
Битрейт : 384 Кбит/сек
Каналы : 6 каналов
Расположение каналов : Front: L C R, Side: L R, LFE
Частота : 48,0 КГц
Битовая глубина : 16 бит
Метод сжатия : С потерями
Задержка видео : -528 мс.
Размер потока : 64,1 Мбайт (6%)










pb.wtf



Скачать Цифровая радиостанция через торрент http://i66.fastpic.ru/big/2014/0820/64/71b516356761aab212fdbd141ed52064.jpg Скачать фильм Цифровая радиостанция через торрент бесплантно в хорошем качестве Описание: После сбоя, допущенного при выполнении «грязной» работы для правительства США, спецагента отправили на тихую должность, охранять ... 10 10 1
Торрент: Зарегистрирован [2014-08-20 20:54] · скачан: 37 раз
Статус: √ проверено
Размер: 3.88 GB
Как cкачать? Как скачать Цифровая радиостанция через торрент | UTorrent

% Раздел Тема Автор DL S | L
Фильмы 2013 [DVDrip, WEB-DLRip, HDrip] [ 746 MB ] Цифровая радиостанция / The Numbers Station [2013 BDRip-AVC] MVO + Sub sokol_ok Скачать
2 | 0
Фильмы 2013 [DVDrip, WEB-DLRip, HDrip] [ 1.46 GB ] Цифровая радиостанция / The Numbers Station [2013 BDRip-AVC] MVO + Original + Sub sokol_ok Скачать
2 | 0

28-11-2019 20:33  

Отключить всю рекламу на сайте

20-08-2014 22:43 Цифровая радиостанция Скачать торрент  

Может пригодиться
pb.wtf



    Дорогой пользователь! Огромная просьба, поблагодарите релизера, оцените раздачу и оставьте свои комментарий, если Вы скачали Цифровая радиостанция через торрент бесплатно! Внесите свою лепту в развитие PiratBit!
    Комментировать посты могут только пользователи прошедшие не сложную регистрацию
    Показать сообщения:    

    Цифровая радиостанция через торрент
    Скачать бесплатно Цифровая радиостанция
    Цифровая радиостанция скачать торрент
    Цифровая радиостанция смотреть онлайн
    Cкачать фильм Цифровая радиостанция бесплатно
    Цифровая радиостанция скачать торрент в хорошем качестве
    Цифровая радиостанция смотреть онлайн бесплатно в хорошем качестве


    Вы не можете начинать темы
    Вы не можете отвечать на сообщения
    Вы не можете редактировать свои сообщения
    Вы не можете удалять свои сообщения
    Вы не можете голосовать в опросах
    Вы не можете прикреплять файлы к сообщениям
    Вы можете скачивать файлы