>

5.6

iTunes

6.1

MVO

5.7

MVO

1

7.4

1 сезон

6.8

iTunes

7.2

1 сезон

13

6.7

1 сезон

8.3

RePack

30

Deluxe

pack

9.9

Лицензия

ВАЖНО

ИГРА 18+

pack

7.3

RePack

MK11

7.7

RePack

jed

7.8

RePack

fifa19

8.5

RePack

RDR2

RePack

NEED FOR SPEED™ PAYBACK

4 сезон

9 сезон

Бесстыжие 9 сезон

Все сериалы

все сериалы на PB.wtf

RePack

FAR CRY 5

Anonymous, доброй ночи, мы катастрофически не успеваем собрать деньги на оплату серверов, помогите нам пожалуйста 5,10,15р., для нас важна любая помощь . В качестве благодарности мы отключим Вам всю рекламу на сайте (укажите свой ник в строку Ваше имя)!

×
  
Magnet ссылка

Десять негритят (Станислав Говорухин) [1987, СССР, криминал, детектив, триллер, DVDRip, Оригинальный] pb.wtf

Десять негритят через торрент pb.wtf

Размер: 2.05 GB | Добавлен: 7 лет назад | Торрент скачан:324 раза
Смотреть онлайн Десять негритят | Скачать    Ребята, помогите собрать деньги на оплату серверов!!!

21-08-2014 07:37 Десять негритят Скачать торрент  

Десять негритят

Год выпуска: 1987
Страна: СССР
Жанр: криминал, детектив, триллер

Продолжительность: 02:09:28
Перевод: Оригинальный
Субтитры: Нет
Режиссер: Станислав Говорухин
В ролях: Владимир Зельдин (судья Уоргрейв), Татьяна Друбич (Вера Клейторн), Александр Кайдановский (Филипп Ломбард), Алексей Жарков (Уильям Генри Блор), Анатолий Ромашин (доктор Армстронг), Людмила Максакова (мисс Эмили Брент), Михаил Глузский (генерал Макартур), Алексей Золотницкий (мистер Роджерс), Ирина Терещенко (миссис Роджерс), Александр Абдулов (Энтони Марстон), В. Аржаткин, Д. Аршинов
Описание:
Десять человек приглашены на Негритянский остров под разными предлогами. Оказавшись в замке, каждый слышит записанный на пластинку смертный приговор. На столе - черные фигурки негритят, в каждой спальне - стишок на стене. «Десять негритят решили пообедать, один из них вдруг поперхнулся, и их осталось девять». Умирает человек - исчезает фигурка негритенка...
Рейтинг


Качество: DVDRip
Формат: AVI
Видео кодек: XviD
Аудио кодек:AC3
Видео: XviD, 704x496 (1.419), 1811 kbps, 23,976 fps, 0,216 bpp
Аудио: AC3 / 5.1 / 48 kHz / 448 kbps / 16 bit

General
Complete name : E:\ФИЛЬМЫ\Desjat.negritjat.DVDRip.avi
Format : AVI
Format/Info : Audio Video Interleave
Format profile : OpenDML
File size : 2.05 GiB
Duration : 2h 9mn
Overall bit rate : 2 272 Kbps
Writing application : VirtualDubMod 1.5.10.2 (build 2540/release)
Writing library : VirtualDubMod build 2540/release

Video
ID : 0
Format : MPEG-4 Visual
Format profile : Advanced Simple@L5
Format settings, BVOP : 2
Format settings, QPel : No
Format settings, GMC : No warppoints
Format settings, Matrix : Default (H.263)
Muxing mode : Packed bitstream
Codec ID : XVID
Codec ID/Hint : XviD
Duration : 2h 9mn
Bit rate : 1 811 Kbps
Width : 704 pixels
Height : 496 pixels
Display aspect ratio : 1.419
Frame rate : 23.976 fps
Color space : YUV
Chroma subsampling : 4:2:0
Bit depth : 8 bits
Scan type : Progressive
Compression mode : Lossy
Bits/(Pixel*Frame) : 0.216
Stream size : 1.64 GiB (80%)
Writing library : XviD 1.2.0.dev47 (UTC 2006-11-01)

Audio
ID : 1
Format : AC-3
Format/Info : Audio Coding 3
Mode extension : CM (complete main)
Codec ID : 2000
Duration : 2h 9mn
Bit rate mode : Constant
Bit rate : 448 Kbps
Channel(s) : 6 channels
Channel positions : Front: L C R, Side: L R, LFE
Sampling rate : 48.0 KHz
Bit depth : 16 bits
Compression mode : Lossy
Stream size : 415 MiB (20%)
Alignment : Split accross interleaves
Interleave, duration : 42 ms (1.00 video frame)
Interleave, preload duration : 500 ms
Фильм начинается с эпизода, в котором чья-то рука расставляет на серебряном подносе фарфоровых негритят (тех самых, посредством которых мистер Оним будет вести счёт своим жертвам). При внимательном рассмотрении можно увидеть в отражении серебряного подноса лицо человека, расставляющего фигурки. Это сам режиссёр фильма Станислав Говорухин, курящий сигару.
Роман Агаты Кристи «Десять негритят» (Ten Little Niggers) был впервые опубликован в 1939 году.
Тот факт, что слово «ниггер», первоначально означавшее просто «негр», приобрело негативный, ругательный смысл, стал причиной того, что под оригинальным названием роман на Западе больше не издавался - из политкорректных соображений фигурирующие в тексте негритята были заменены на маленьких индейцев, и название романа изменилось на «Десять маленьких индейцев» (Ten Little Indians).
Впоследствии на основе романа Агата Кристи написала пьесу, получившую название «И никого не стало» (And Then There Were None). В ней некоторые характеры и сюжетные ходы претерпели существенные изменения, а кроме того, был существенно изменен финал - из постановочных соображений пьеса заканчивается хэппи-эндом.
В фильме не произносится предпоследний куплет считалочки о негритятах. В том же переводе, который использован в картине, он звучит так: «Двое негритят легли на солнцепеке: / Один сгорел - и вот один, несчастный, одинокий».
Мисс Эмили Брент (Людмила Максакова) дважды произносит цитаты из другого произведения Агаты Кристи - знаменитой пьесы «Мышеловка»: первый раз, когда говорит миссис Роджерс о том, что в доме завелся жучок (в «Мышеловке» аналогичные слова произносит миссис Бойл); и второй раз, когда говорит Вере Клейсорн о том, что прошлое касается ее ровно настолько, насколько она сама этого хочет (в «Мышеловке» точно такие же слова произносит мисс Кейсуэлл).
Актер Александр Кайдановский (капитан Филипп Ломбард), сыгравший здесь одну из своих лучших ролей, согласился сниматься в фильме исключительно из финансовых соображений. Забавно, что у его героя есть реплика, в которой он говорит, что согласился приехать на Негритянский остров только из-за предложенных ему денег.
pb.wtf



Скачать Десять негритят через торрент https://pic.kartinco.top/new/img/2014-08/21/2l98e7mgxf7kqztefbf7rigmz.jpg Скачать, смотреть онлайн Десять негритят бесплантно в хорошем качестве Описание: Десять человек приглашены на Негритянский остров под разными предлогами. Оказавшись в замке, каждый слышит записанный на ... 10 10 7
Info! Золотая раздача, скачанное не засчитывается.
Торрент: Зарегистрирован [2014-08-21 07:37] · скачан: 324 раз
Статус: √ проверено
Размер: 2.05 GB
Как cкачать? Как скачать Десять негритят через торрент | UTorrent

% Раздел Тема Автор DL S | L
Детективы, Боевики, Триллеры [ 394 MB ] Агата Кристи - Десять негритят [Князев Игорь Хорлин А. Терновский Е. 2017 128 kbps MP3] bober100 Скачать
1 | 0
Классические порно фильмы [ 1019 MB ] Десять невест / Ten Little Maidens [1985 Feature Foreign Straight DVDRip 480p] sheker187 Скачать
1 | 0

28-11-2019 20:33  

Отключить всю рекламу на сайте

    Дорогой пользователь! Огромная просьба, поблагодарите релизера, оцените раздачу и оставьте свои комментарий, если Вы скачали Десять негритят через торрент бесплатно!
    Комментировать посты могут только пользователи прошедшие не сложную регистрацию
    Показать сообщения:    

    Десять негритят через торрент
    Скачать бесплатно Десять негритят
    Десять негритят скачать торрент
    Десять негритят смотреть онлайн
    Cкачать фильм Десять негритят бесплатно
    Десять негритят скачать торрент в хорошем качестве
    Десять негритят смотреть онлайн бесплатно в хорошем качестве


    Вы не можете начинать темы
    Вы не можете отвечать на сообщения
    Вы не можете редактировать свои сообщения
    Вы не можете удалять свои сообщения
    Вы не можете голосовать в опросах
    Вы не можете прикреплять файлы к сообщениям
    Вы можете скачивать файлы