новый адрес
Ссылка на приватное зеркало всего за 1$. Внимание количество ограничено!!!

iTunes

1+1

iTunes

мы

WEB-DL

1

iTunes

Чернобыль

iTunes

Ральф против интернета

Лицензия

ПШазам

Лицензия

Оно 2

Лицензия

30
pack

Вам бонус

ВАЖНО

!!Акция!!

Alien_RageХит недели

RePack

Resident Evil 21

ИГРА 18+

pack

RePack

jed

!!Акция!!

Alien_Rage

RePack

fifa19

RePack

Assassins Creed: Odyssey

RePack

NEED FOR SPEED™ PAYBACK

3 сезон

9 сезон

Бесстыжие 9 сезон

Все сериалы

все сериалы на PB.wtf

RePack

FAR CRY 5
Ребята, катастрофически не хватает 1900р. для оплаты серверов за Октябрь (всвязи с блокировками трафик упал в 3 раза), 1-2р., выручайте.
  

Забавные игры / Funny Games (Михаэль Ханеке / Michael Haneke) [1997, Австрия, триллер, драма, криминал, BDRip, Профессиональный (двухголосый)] pb.wtf

Забавные игры через торрент pb.wtf

Размер: 1.45 GB | Добавлен: 5 лет 3 мес. назад | Торрент скачан:75 раз
Скачать  

21-08-2014 10:40 Забавные игры Скачать торрент  

Забавные игры / Funny Games

Год выпуска: 1997
Страна: Австрия
Жанр: триллер, драма, криминал

Продолжительность: 01:48:51
Перевод: Профессиональный (двухголосый)
Субтитры: Нет
Режиссер: Михаэль Ханеке / Michael Haneke
В ролях: Сюзанна Лотар (Anna), Ульрих Мюэ (Georg), Арно Фриш (Paul), Франк Гиринг (Peter), Штефан Клапчински (Schorschi), Дорис Кунстманн (Gerda), Кристоф Банцер (Fred), Вольфганг Глюк (Robert), Зузанне Менегель (Gerdas Schwester), Моника Цаллингер (Eva)
Описание:
В свой загородный дом на живописном озере приезжает муж, жена и 10-летний сын. К ним приходят два молодых парня, представившимися гостями соседей. У обоих на руках белые перчатки. Молодые люди решили позабавиться. Они убили собаку... и предложили хозяевам пари...
Рейтинг


Качество: BDRip
Формат: AVI
Видео кодек: XviD
Аудио кодек:AC3
Видео: XviD, 720x384 (1.875), 1457 kbps, 23,976 fps, 0,220 bpp
Аудио: AC3 / 5.1 / 48 kHz / 448 kbps / 16 bit


Сэмпл
Общее
Полное имя : E:\ФИЛЬМЫ\Funny Games.1997.BDRip.avi
Формат : AVI
Формат/Информация : Audio Video Interleave
Профиль формата : OpenDML
Настройки формата : rec
Размер файла : 1,45 Гбайт
Продолжительность : 1 ч. 48 м.
Общий поток : 1911 Кбит/сек
Программа кодирования : AVI-Mux GUI 1.17.8.3, Feb 16 201019:42:50

Видео
Идентификатор : 0
Формат : MPEG-4 Visual
Профиль формата : Advanced Simple@L5
Параметр BVOP формата : 1
Параметр QPel формата : Нет
Параметр GMC формата : Без точки перехода
Параметр матрицы формата : Выборочная
Режим смешивания : Сжатый битовый поток
Идентификатор кодека : XVID
Идентификатор кодека/Подсказка : XviD
Продолжительность : 1 ч. 48 м.
Битрейт : 1457 Кбит/сек
Ширина : 720 пикселей
Высота : 384 пикселя
Соотношение сторон : 1,85:1
Частота кадров : 23,976 кадра/сек
Цветовое пространство : YUV
Субдискретизация насыщенности : 4:2:0
Битовая глубина : 8 бит
Тип развёртки : Прогрессивная
Метод сжатия : С потерями
Бит/(Пиксели*Кадры) : 0.220
Размер потока : 1,11 Гбайт (76%)
Библиотека кодирования : XviD 65

Аудио
Идентификатор : 1
Формат : AC-3
Формат/Информация : Audio Coding 3
Расширение режима : CM (complete main)
Параметр Endianness формата : Big
Идентификатор кодека : 2000
Продолжительность : 1 ч. 48 м.
Вид битрейта : Постоянный
Битрейт : 448 Кбит/сек
Каналы : 6 каналов
Расположение каналов : Front: L C R, Side: L R, LFE
Частота : 48,0 КГц
Битовая глубина : 16 бит
Метод сжатия : С потерями
Размер потока : 349 Мбайт (23%)
Выравнивание : Соединение по промежуткам
Продолжительность промежутка : 64 мс. (1,53 видеокадра)
Время предзагрузки промежутка : 192 мс.
Заголовок : Двухголосый закадровый
pb.wtf



Скачать Забавные игры через торрент http://pic.kartinco.top/new/img/2014-08/21/fr4lyahcpydhrixa6ic58woqs.jpg Скачать фильм Забавные игры через торрент бесплантно в хорошем качестве Описание: В свой загородный дом на живописном озере приезжает муж, жена и 10-летний сын. К ним приходят два молодых парня, представившимися ... 10 10 3
Торрент: Зарегистрирован [2014-08-21 10:40] · скачан: 75 раз
Статус: √ проверено
Размер: 1.45 GB
Как cкачать? Как скачать Забавные игры через торрент | qTorrent

% Раздел Тема Автор DL S | L
Арт-хаус и авторское кино [ 1.74 GB ] Забавные игры / Funny Games U.S [2007 BDRip] franz48 Скачать
1 | 0

28-11-2019 20:33  

Отключить всю рекламу на сайте

    Дорогой пользователь! Огромная просьба, поблагодарите релизера, оцените раздачу и оставьте свои комментарий, если Вы скачали Забавные игры через торрент бесплатно! Внесите свою лепту в развитие PiratBit!
    Комментировать посты могут только пользователи прошедшие не сложную регистрацию
    Показать сообщения:    

    Забавные игры через торрент
    Скачать бесплатно Забавные игры
    Забавные игры скачать торрент
    Забавные игры смотреть онлайн
    Cкачать фильм Забавные игры бесплатно
    Забавные игры скачать торрент в хорошем качестве
    Забавные игры смотреть онлайн бесплатно в хорошем качестве


    Вы не можете начинать темы
    Вы не можете отвечать на сообщения
    Вы не можете редактировать свои сообщения
    Вы не можете удалять свои сообщения
    Вы не можете голосовать в опросах
    Вы не можете прикреплять файлы к сообщениям
    Вы можете скачивать файлы