Ссылка на приватное зеркало нашего сайта всего за 1$. Внимание количество ограничено!!!

2 сезон

iTunes

1 сезон

1

2 сезон

2 сезон

iTunes

1 сезон

RePack

30

Ultimate

ВАЖНО

ИГРА 18+

pack

RePack

MK11
pack

Забери бонус

RePack

jed

!!Акция!!

Alien_Rage

RePack

fifa19

RePack

Assassins Creed: Odyssey

RePack

NEED FOR SPEED™ PAYBACK

4 сезон

9 сезон

Бесстыжие 9 сезон

Все сериалы

все сериалы на PB.wtf

RePack

FAR CRY 5
  

Смешанные / Blended (Фрэнк Корачи) [2014 г., Комедия, Blu-ray, Дубляж (iTunes)] pb.wtf

Смешанные через торрент pb.wtf

Размер: 26.13 GB | Добавлен: 6 лет 3 мес. назад | Торрент скачан:58 раз
Скачать  

21-08-2014 13:07 Смешанные Скачать торрент  

Смешанные / Blended
Год выпуска: 2014
Страна: США
Жанр: Комедия
Продолжительность: 01:57:12
Перевод: Дубляж (iTunes)+Украинский+оригинал
Субтитры: Русские, английские, украинские

Режиссер: Фрэнк Корачи

В ролях: Адам Сэндлер, Дрю Бэрримор, Кевин Нилон, Терри Крюс, Венди МакЛендон-Кови, Эмма Фурманн, Белла Торн, Брэкстон Бэкхам, Аливия Элин Линд, Джоэл МакХэйл

Описание: После катастрофического свидания «вслепую»  родители-одиночки Лорен и Джим согласны только в одном: они не хотят больше видеть друг друга никогда! Полагая, что их знакомство окончено, обе семьи пользуются удобным случаем и отправляются в идеальный отпуск с детьми. А оказываются в одних и тех же гостиничных апартаментах на роскошном южноафриканском курорте аж на целую неделю.

Качество: Blu-ray
Формат: BDMV
Видео кодек: H.264
Аудио кодек: AC3-DTS
Видео: MPEG-4 AVC, (1920x1080),25917 Кбит/с, 23.976 кадра/сек
Аудио#1: AC-3 6 ch,384 kbps (Rus) 48.0 KHz Дубляж (iTunes)
Аудио#2: AC-3 2 ch,192 kbps (Ukr) 48.0 KHz Украинский
Аудио#3: DTS 6 ch,1509 kbps (Eng) 48.0 KHz Оригинал
скриншот   скриншот   скриншот  

Тип потока: Видео
Длительность: 01:57:12
Кодек: AVC
Кодек/описание: Advanced Video Codec
Кодек/профиль: High@L4.1
Кодек/ID: 27
Кодек/CABAC: Yes
Кодек/ReFrames: 2 frames
Размеры изображения: 1920 x 1080 (16:9)
Частота кадров: 23.976 fps
Битрейт/тип: VBR
Цветовое пространство: YUV
Тип развёртки: Progressive
Колориметрия: 4:2:0
Глубина: 8 bits
:
Тип потока: Звук #1
Длительность: 01:57:12.064
Кодек: AC-3
Кодек/описание: Audio Coding 3
Кодек/ID: 129
Частота дискретизации: 48.0 KHz
Каналов: 6 channels
Битрейт: 384 Kbps
Битрейт/тип: Constant
Размер потока: 322 MiB (1%)
Глубина: 16 bits
Метод сжатия: Lossy
:
Тип потока: Звук #2
Длительность: 01:57:12.064
Кодек: AC-3
Кодек/описание: Audio Coding 3
Кодек/ID: 129
Частота дискретизации: 48.0 KHz
Каналов: 2 channels
Битрейт: 192 Kbps
Битрейт/тип: Constant
Размер потока: 161 MiB (1%)
Глубина: 16 bits
Метод сжатия: Lossy
:
Тип потока: Звук #3
Длительность: 01:57:13.781
Кодек: DTS
Кодек/описание: Digital Theater Systems
Кодек/профиль: MA / Core
Режим смешивания: Stream extension
Кодек/ID: 134
Частота дискретизации: 48.0 KHz
Каналов: 6 channels
Битрейт: Unknown / 1 509 Kbps
Битрейт/тип: Variable
Глубина: 24 bits
Метод сжатия: Lossless / Lossy
:
Тип потока: Субтитры #1
Формат: PGS
:
Тип потока: Субтитры #2
Формат: PGS
:
Тип потока: Субтитры #3
Формат: PGS
:
Тип потока: Субтитры #4
Формат: PGS
:
Тип потока: Субтитры #5
Формат: PGS

pb.wtf



Скачать Смешанные через торрент http://pic.kartinco.top/images/6/yalq3.jpg Скачать фильм Смешанные через торрент бесплантно в хорошем качестве Описание: После катастрофического свидания «вслепую»  родители-одиночки Лорен и Джим согласны только в одном: они не хотят больше видеть ... 10 10 5
Info! Золотая раздача, скачанное не засчитывается.
Торрент: Зарегистрирован [2014-08-21 13:07] · скачан: 58 раз
Статус: √ проверено
Размер: 26.13 GB
Как cкачать? Как скачать Смешанные через торрент | qTorrent

% Раздел Тема Автор DL S | L
Фильмы [HD 720p, 1080p] (Хороший звук DUB, MVO) [ 10.03 GB ] Смешанные / Blended [2014 BDRip 1080p DUB ] от R.G. HD-Films Seedtank Скачать
1 | 0
Фильмы (Blu-ray, BD-Remux, HDDVD) [ 34.29 GB ] Смешанные / Blended [2014 Blu-ray ] _KaisiK_ Скачать
1 | 0
Фильмы (DVD фильмы) [ 6.03 GB ] Смешанные / Blended [2014 DVD9] R5 voovaz Скачать
1 | 0
Фильмы 2014 [DVDrip, WEB-DLRip, HDrip] [ 2.18 GB ] Смешанные / Blended [2014 BDRip ] coc900 Скачать
1 | 0
Фильмы 2014 [DVDrip, WEB-DLRip, HDrip] [ 1.76 GB ] Смешанные / Blended [2014 HDRip-AVC От R.G. PiratFilms White Smoke Скачать
1 | 0
Фильмы 2014 [DVDrip, WEB-DLRip, HDrip] [ 1.46 GB ] Смешанные / Blended [2014 BDRip-AVC] DUB potroks Скачать
1 | 0
Фильмы 2014 [DVDrip, WEB-DLRip, HDrip] [ 2.19 GB ] Смешанные / Blended [2014 BDRip-AVC] DUB potroks Скачать
1 | 0

28-11-2019 20:33  

Отключить всю рекламу на сайте

28-08-2014 11:07 Смешанные Скачать торрент  

Люди добрые подскажите как правильно блю рей записать, что бы на ps3 воспроизвести?pb.wtf



    Дорогой пользователь! Огромная просьба, поблагодарите релизера, оцените раздачу и оставьте свои комментарий, если Вы скачали Смешанные через торрент бесплатно! Внесите свою лепту в развитие PiratBit!
    Комментировать посты могут только пользователи прошедшие не сложную регистрацию
    Показать сообщения:    

    Смешанные через торрент
    Скачать бесплатно Смешанные
    Смешанные скачать торрент
    Смешанные смотреть онлайн
    Cкачать фильм Смешанные бесплатно
    Смешанные скачать торрент в хорошем качестве
    Смешанные смотреть онлайн бесплатно в хорошем качестве


    Вы не можете начинать темы
    Вы не можете отвечать на сообщения
    Вы не можете редактировать свои сообщения
    Вы не можете удалять свои сообщения
    Вы не можете голосовать в опросах
    Вы не можете прикреплять файлы к сообщениям
    Вы можете скачивать файлы