>

7.4

iTunes

7.4

2 сезон

9.4

1 сезон

1

7.4

2 сезон

7.2

iTunes

6.0

MVO

13

6.1

iTunes

8.3

Пиратка

30

ULTIMATE

pack

9.9

Лицензия

ВАЖНО

ИГРА 18+

pack

7.3

RePack

MK11

7.7

RePack

jed

7.8

RePack

fifa19

8.5

RePack

RDR2

RePack

NEED FOR SPEED™ PAYBACK

1 сезон

9 сезон

Бесстыжие 9 сезон

Все сериалы

все сериалы на PB.wtf

RePack

FAR CRY 5

Anonymous, доброй ночи, мы катастрофически не успеваем собрать деньги на оплату серверов, помогите нам пожалуйста 5,10,15р., для нас важна любая помощь . В качестве благодарности мы отключим Вам всю рекламу на сайте (укажите свой ник в строку Ваше имя)!

×
  
Magnet ссылка

Прикосновение греха / Tian zhu ding (Цзя Чжанкэ) [2013 г., драма, BDRip, Авторский одноголосый "А. Алексеев"] pb.wtf

Прикосновение греха через торрент pb.wtf

Размер: 2.15 GB | Добавлен: 7 лет 4 мес. назад | Торрент скачан:14 раз
Смотреть онлайн Прикосновение греха | Скачать    Ребята, помогите собрать деньги на оплату серверов!!!

21-08-2014 17:26 Прикосновение греха Скачать торрент  

Прикосновение греха / Tian zhu ding
Год выпуска: 2013
Страна: Китай, Япония, Франция / Xstream Pictures, Shanghai Film Group, Bandai Visual Company
Жанр: драма
Продолжительность: 02:09:45
Перевод: Авторский одноголосый (А.Алексеев)

Режиссер: Цзя Чжанкэ

В ролях: У Цзян, Ланьшань Ло, Ли Мэн, Ван Баоцян, Цзяи Чжан, Чжао Тао

Описание: Шахтер Дахай возмущен царящей среди руководителей его деревни коррупцией и решает перейти к действиям. Рабочий-мигрант Сан’ер открывает для себя бесчисленные возможности, заложенные в огнестрельном оружии. Домогательства богатого клиента доводят работницу сауны Сяо-ю до полного отчаяния. Сяо-гуй вынужден менять работу, каждый раз соглашаясь на худшие условия. Четыре персонажа, четыре провинции, отражающие облик современного Китая. Портрет общества, которое переживает бурное экономическое развитие и постепенно заражается бациллой насилия.

Качество: BDRip (Рип с BD-Remux 1080p)
Формат: AVI
Видео кодек: XviD
Аудио кодек: AC3
Видео: MPEG4, XviD, 720x304 (2.35:1), 23.976 fps, 1 908 Kbps (0.364 bit/pixel)
Аудио: AC-3, 48.0 KHz, 6 ch, 448 Kbps, CBR


Общее
Полное имя : G:\кино\Прикосновение греха.2013.BDRip.avi
Формат : AVI
Формат/Информация : Audio Video Interleave
Профиль формата : OpenDML
Размер файла : 2,15 Гбайт
Продолжительность : 2 ч. 9 м.
Общий поток : 2368 Кбит/сек
Программа кодирования : VirtualDubMod 1.5.10.3 | www.virtualdub-fr.org || (build 2550/release)
Библиотека кодирования : VirtualDubMod build 2550/release

Видео
Идентификатор : 0
Формат : MPEG-4 Visual
Профиль формата : Advanced Simple@L5
Параметр BVOP формата : 2
Параметр QPel формата : Нет
Параметр GMC формата : Без точки перехода
Параметр матрицы формата : Default (H.263)
Идентификатор кодека : XVID
Идентификатор кодека/Подсказка : XviD
Продолжительность : 2 ч. 9 м.
Битрейт : 1908 Кбит/сек
Ширина : 720 пикселей
Высота : 304 пикселя
Соотношение сторон : 2,35:1
Частота кадров : 23,976 кадра/сек
Цветовое пространство : YUV
Субдискретизация насыщенности : 4:2:0
Битовая глубина : 8 бит
Тип развёртки : Прогрессивная
Метод сжатия : С потерями
Бит/(Пиксели*Кадры) : 0.364
Размер потока : 1,73 Гбайт (81%)
Библиотека кодирования : XviD 1.2.1 (UTC 2008-12-04)

Аудио
Идентификатор : 1
Формат : AC-3
Формат/Информация : Audio Coding 3
Расширение режима : CM (complete main)
Параметр Endianness формата : Big
Идентификатор кодека : 2000
Продолжительность : 2 ч. 9 м.
Вид битрейта : Постоянный
Битрейт : 448 Кбит/сек
Каналы : 6 каналов
Расположение каналов : Front: L C R, Side: L R, LFE
Частота : 48,0 КГц
Битовая глубина : 16 бит
Метод сжатия : С потерями
Размер потока : 416 Мбайт (19%)
Выравнивание : Разделение по промежуткам
Продолжительность промежутка : 42 мс. (1,00 видеокадр)
Время предзагрузки промежутка : 500 мс.

pb.wtf



Скачать Прикосновение греха через торрент https://pic1.kartinco.top/images/61/ijf1l.jpg Скачать, смотреть онлайн Прикосновение греха бесплантно в хорошем качестве Описание: Шахтер Дахай возмущен царящей среди руководителей его деревни коррупцией и решает перейти к действиям. Рабочий-мигрант Сан’ер ... 8.3 10 3
Торрент: Зарегистрирован [2014-08-21 17:26] · скачан: 14 раз
Статус: √ проверено
Размер: 2.15 GB
Как cкачать? Как скачать Прикосновение греха через торрент | UTorrent



Последний раз редактировалось: coc900 (2014-12-02 17:33), всего редактировалось 1 раз

28-11-2019 20:33  

Отключить всю рекламу на сайте

    Дорогой пользователь! Огромная просьба, поблагодарите релизера, оцените раздачу и оставьте свои комментарий, если Вы скачали Прикосновение греха через торрент бесплатно!
    Комментировать посты могут только пользователи прошедшие не сложную регистрацию
    Показать сообщения:    

    Прикосновение греха через торрент
    Скачать бесплатно Прикосновение греха
    Прикосновение греха скачать торрент
    Прикосновение греха смотреть онлайн
    Cкачать фильм Прикосновение греха бесплатно
    Прикосновение греха скачать торрент в хорошем качестве
    Прикосновение греха смотреть онлайн бесплатно в хорошем качестве


    Вы не можете начинать темы
    Вы не можете отвечать на сообщения
    Вы не можете редактировать свои сообщения
    Вы не можете удалять свои сообщения
    Вы не можете голосовать в опросах
    Вы не можете прикреплять файлы к сообщениям
    Вы можете скачивать файлы